В как в имени Виан / V comme Vian (Филипп Леге / Philippe Le Guay) [2010, Франция, биографическая драма, DVB] Original (Fre) + Sub (rus)

 
Автор Сообщение

TorrentFilm ®

Пол:

Стаж: 2 года

Сообщений: 7741



Награды: Нет

Торрент-статистика

Создавать темы 02-Мар-2015 00:01

[Цитировать]

"В" как в имени "Виан"
V comme Vian- Страна: Франция
Жанр: биографическая драма
Год выпуска: 2010
Продолжительность: 01:39:31
Перевод: Субтитры (перевод Éclair Group)
Cубтитры: русские
Оригинальная аудиодорожка: французский
Режиссер: Филипп Леге / Philippe Le GuayВ ролях: Лоран Люка / Laurent Lucas (Boris Vian), Жюли Гайе / Julie Gayet (Michelle Vian), Бернар Лекок / Bernard Le Coq (Raymond Queneau), Анна-Лена Штрасс / Anna-Lena Strasse (Ursula Kubler-Vian), Дидье Фламан / Didier Flamand (Jean Paulhan), Ален Либоль / Alain Libolt (Jean-Paul Sartre), Мириам Морали / Myriam Moraly (Juliette Greco)
Описание: Художник по костюмам Элизабет Тавернье / Elisabeth Tavernier.
Число Виана — десять. Он родился 10 марта, написал 10 романов, ему было суждено 10 лет литературного творчества, и его сердце разорвалось через 10 минут просмотра фильма по собственному шедевру, который начался в 10 часов утра...
Борис Виан умер не как-нибудь. Он символично скончался 23 июня 1959 года на премьере фильма, поставленного по его трэш-триллеру "Я приду плюнуть на ваши могилы". Виан выдержал всего десять минут просмотра, потом закатил глаза, откинулся на спинку кресла и умер, не приходя в сознание, в скорой помощи по дороге в больницу. То есть последнее, что он видел в своей жизни, — то низкопробное криминальное чтиво, та жуть, которую он сам сотворил… (Алексей Соколовский)
Доп. информация: TV5MONDE DVB-S. Презент для Nmaska
Награды: 2 номинации Le Festival des Créations Télévisuelles de Luchon 2011 ("Золото Пиренеев" за лучший актерский состав, лучший режиссер).

Качество видео: DVB
Формат видео: MKV
Видео: MPEG Video 2, 704x576@1024x576 (16:9), 25 fps, ~2583 kbps avg, 0.255 bit/pixel
Аудио: Французский (MPEG Audio 2, 2 ch, 48 kHz, ~192.00 kbps avg)
Формат субтитров: hardsub (неотключаемые)

MediaInfo

ОбщееУникальный идентификатор : 255200149404607670566582669524992768023 (0xBFFDC2CDF31F8DC692921D8F677BB817)Полное имя : E:\My Torrents 2\[apreder]V_comme_Vian(2010)DVB.mkvФормат : MatroskaВерсия формата : Version 2Размер файла : 1,97 ГбайтПродолжительность : 1 ч. 39 м.Режим общего битрейта : ПеременныйОбщий поток : 2831 Кбит/секДата кодирования : UTC 2015-02-25 16:29:40Программа кодирования : mkvmerge v7.6.0 ('Garden of Dreams') 64bit built on Feb 8 2015 13:04:34Библиотека кодирования : libebml v1.3.1 + libmatroska v1.4.2
ВидеоИдентификатор : 1Формат : MPEG VideoВерсия формата : Version 2Профиль формата : Main@MainПараметр BVOP формата : ДаПараметр матрицы формата : ВыборочнаяПараметр GOP формата : M=3, N=15Format_Settings_PictureStructure : FrameИдентификатор кодека : V_MPEG2Идентификатор кодека/Информация : MPEG 1 or 2 VideoПродолжительность : 1 ч. 39 м.Вид битрейта : ПеременныйБитрейт : 2583 Кбит/секШирина : 704 пикселяВысота : 576 пикселейСоотношение сторон : 16:9Режим частоты кадров : ПостоянныйЧастота кадров : 25,000 кадров/секСтандарт вещания : PALЦветовое пространство : YUVСубдискретизация насыщенности : 4:2:0Битовая глубина : 8 битТип развёртки : ЧересстрочнаяПорядок развёртки : Верхнее поле первоеМетод сжатия : С потерямиБит/(Пиксели*Кадры) : 0.255Временной код первого кадра : 00:00:00:00Оригинал временного кода : Group of pictures headerРазмер потока : 1,80 Гбайт (91%)Default : ДаForced : НетGop_OpenClosed_FirstFrame : Closed
АудиоИдентификатор : 2Формат : MPEG AudioВерсия формата : Version 1Профиль формата : Layer 2Идентификатор кодека : A_MPEG/L2Идентификатор кодека/Подсказка : MP2Продолжительность : 1 ч. 39 м.Вид битрейта : ПостоянныйБитрейт : 192 Кбит/секКаналы : 2 каналаЧастота : 48,0 КГцМетод сжатия : С потерямиРазмер потока : 137 Мбайт (7%)Язык : FrenchDefault : ДаForced : Нет

Скриншот c названием фильма

Скриншоты


Резервные скриншоты


-[2'136]
[Профиль] [ЛС]

Создавать темы 06-Авг-2015 22:42 (спустя 5 месяцев 4 дня)

Топик был перенесен из форума Фильмы до 2014 года в форум Фильмы до 2012 года
sergej644
 

Создавать темы 12-Июн-2016 07:54 (спустя 1 год 3 месяца)

Топик был перенесен из форума Фильмы 2011 года в форум Фильмы 2010 года
Russian Mafia
 
Кто просматривает тему:

Показать сообщения:    

Текущее время: Сегодня 14:26

Часовой пояс: GMT



Вы не можете начинать темы
Вы не можете отвечать на сообщения
Вы не можете редактировать свои сообщения
Вы не можете удалять свои сообщения
Вы не можете голосовать в опросах
Вы не можете прикреплять файлы к сообщениям
Вы не можете скачивать файлы