В изгнании в 3Д / Outcast 3D (Ник Пауэлл / Nick Powell) [2014, Боевик, Приключения, Драма, BDrip-AVC] DVO, Half OverUnder / Вертикальная анаморфная стереопара

 
Автор Сообщение

TorrentFilm ®

Пол:

Стаж: 2 года

Сообщений: 7741



Награды: Нет

Торрент-статистика

Создавать темы 20-Май-2015 00:03

[Цитировать]

-В изгнании
Outcast
- Год выпуска: 2014
Страна: Китай, Канада, Франция (SquareOne, Yunnan Film Group, Arclight Films, Mediabiz)
Жанр: Боевик, Приключения, Драма
Продолжительность: 01:38:47
Перевод: Любительский двухголосый закадровый - Пиратская студия
Режиссер: Ник Пауэлл / Nick Powell-Роли исполняли:

Jacob - Хейден Кристенсен
Gallain - Николас Кейдж
Lian - Лю Ифэй
Shing - Энди Он
Anika - Аноджа Диас Болт
Crusader - Рон Смуренбург
Wu - Фернандо Чиен
Crusader - Престон Бэйкер
The Moor Captain - Джавед Эль Берни
The Moor - Алаа Умузун
Captain Peng - Байрон Лосон
-Описание: Сюжет фильма разворачивается в Китае, в двенадцатом веке. Наследник императорского престола становится целью убийства своего старшего брата и вынужден бежать. Единственное, что остается молодому принцу, – это защита его сестры при помощи воина-крестоносца (Хейден Кристенсен), которому, в свою очередь, придется смириться с собственными демонами и, сплотившись с некогда легендарным воином (Николас Кейдж), вернуть принца на его законное место на троне...-Доп. инфо: Студийная ручная конвертация в 3Д, как обычно у китайцев. Глубина 3Д хорошая.
Озвучка для этого фильма, на данный момент, везде одна, хотя кое-кто её обозначает как профессиональную (она реально похожа, имхо).
За любезно предоставленный BD 3D большое спасибо пользователю 119905346!-Премьера: 26 сентября 2014
. .
-Качество: BDRip (by Ash61)
Контейнер: MKV
Формат 3D: Half OverUnder / Вертикальная анаморфная стереопара
Порядок ракурсов: левый ракурс первый-Видео: AVC / 23,976 fps / 1920х1080p / 12.3 Mbps
Аудио:
#1 - Русский / AC3 / 48 KHz / 5.1 ch / 640 Kbps (DVO - Пиратская студия) [ремастеринг Ash61]
#2 - Английский / AC3 / 48 KHz / 5.1 ch / 640 Kbps (Original - BD 3D Ger)
Субтитры (внешние SRT ANSI):
#1 - English Forced
#2 - English Full (i)

MediaInfo

General
Unique ID : 174808312364216232670696281868468640366 (0x8382DB3882396280ABAFFF352A565A6E)
Complete name : E:\Outcast(2014)3D-halfOU(Ash61)DVO\Outcast(2014)3D-halfOU(Ash61)DVO.mkv
Format : Matroska
Format version : Version 2
File size : 9.58 GiB
Duration : 1h 38mn
Overall bit rate : 13.9 Mbps
Movie name : В изгнании / Outcast (2014) 3D
Encoded date : UTC 2015-05-01 12:04:01
Writing application : mkvmerge v5.8.0 ('No Sleep / Pillow') built on Sep 2 2012 15:37:04
Writing library : libebml v1.2.3 + libmatroska v1.3.0
Video
ID : 1
Format : AVC
Format/Info : Advanced Video Codec
Format profile : High@L4.1
Format settings, CABAC : Yes
Format settings, ReFrames : 4 frames
Codec ID : V_MPEG4/ISO/AVC
Duration : 1h 38mn
Bit rate : 12.3 Mbps
Width : 1 920 pixels
Height : 1 080 pixels
Display aspect ratio : 16:9
Frame rate mode : Constant
Frame rate : 23.976 fps
Color space : YUV
Chroma subsampling : 4:2:0
Bit depth : 8 bits
Scan type : Progressive
Bits/(Pixel*Frame) : 0.248
Stream size : 8.51 GiB (89%)
Title : BDRip by Ash61
Writing library : x264 core 138 r2358 9e941d1
Encoding settings : cabac=1 / ref=4 / deblock=1:-3:-3 / analyse=0x3:0x113 / me=umh / subme=10 / psy=1 / psy_rd=1.00:0.00 / mixed_ref=1 / me_range=32 / chroma_me=1 / trellis=2 / 8x8dct=1 / cqm=0 / deadzone=21,11 / fast_pskip=1 / chroma_qp_offset=-2 / threads=12 / lookahead_threads=3 / sliced_threads=0 / nr=0 / decimate=1 / interlaced=0 / bluray_compat=0 / constrained_intra=0 / bframes=11 / b_pyramid=2 / b_adapt=2 / b_bias=0 / direct=3 / weightb=1 / open_gop=0 / weightp=2 / keyint=250 / keyint_min=23 / scenecut=40 / intra_refresh=0 / rc_lookahead=60 / rc=crf / mbtree=1 / crf=15.5 / qcomp=0.70 / qpmin=10 / qpmax=51 / qpstep=4 / vbv_maxrate=40000 / vbv_bufsize=30000 / crf_max=0.0 / nal_hrd=none / frame-packing=4 / ip_ratio=1.40 / aq=1:0.70
Language : English
Default : Yes
Forced : No
Audio #1
ID : 2
Format : AC-3
Format/Info : Audio Coding 3
Mode extension : CM (complete main)
Format settings, Endianness : Big
Codec ID : A_AC3
Duration : 1h 38mn
Bit rate mode : Constant
Bit rate : 640 Kbps
Channel(s) : 6 channels
Channel positions : Front: L C R, Side: L R, LFE
Sampling rate : 48.0 KHz
Bit depth : 16 bits
Compression mode : Lossy
Stream size : 452 MiB (5%)
Title : Двухголосый закадровый - Пиратская студия (ремастеринг Ash61)
Language : Russian
Default : Yes
Forced : No
Audio #2
ID : 3
Format : AC-3
Format/Info : Audio Coding 3
Mode extension : CM (complete main)
Format settings, Endianness : Big
Codec ID : A_AC3
Duration : 1h 38mn
Bit rate mode : Constant
Bit rate : 640 Kbps
Channel(s) : 6 channels
Channel positions : Front: L C R, Side: L R, LFE
Sampling rate : 48.0 KHz
Bit depth : 16 bits
Compression mode : Lossy
Stream size : 452 MiB (5%)
Title : Original - BD 3D Ger
Language : English
Default : No
Forced : No
Menu
00:00:00.000 : :1
00:09:00.165 : :2
00:18:38.409 : :3
00:28:21.158 : :4
00:36:43.785 : :5
00:43:45.498 : :6
00:55:36.166 : :7
01:03:19.087 : :8
01:10:21.968 : :9
01:21:26.215 : :10
01:31:46.626 : :11

Для оценки 3Д - Анимированные скрины















[Профиль] [ЛС]
Кто просматривает тему:

Показать сообщения:    

Текущее время: Сегодня 19:38

Часовой пояс: GMT



Вы не можете начинать темы
Вы не можете отвечать на сообщения
Вы не можете редактировать свои сообщения
Вы не можете удалять свои сообщения
Вы не можете голосовать в опросах
Вы не можете прикреплять файлы к сообщениям
Вы не можете скачивать файлы