В жизни раз бывает 60. Юбилейный концерт Игоря Крутого (2014) HDRip-AVC

 
Автор Сообщение

sergej644 ®

Пол:

Стаж: 4 года 11 месяцев

Сообщений: 6044

Откуда: Soviet Union



Награды: Нет

Торрент-статистика

Создавать темы 09-Авг-2015 17:54

[Цитировать]

Информация о фильме
Название: В жизни раз бывает 60. Юбилейный концерт Игоря Крутого
Год выхода: 2014
О видео:
В праздничной программе "В жизни раз бывает 60" примут участие: Лара Фабиан, Ирина Аллегрова, Филипп Киркоров, Лайма Вайкуле, Валерий Леонтьев, Николай Басков, Кристина Орбакайте, Григорий Лепс, Лариса Долина.
1ч + 2ч
Продолжительность: 01:49:42 + 01:48:47
Файл
Кодек: h.264
Качество: HDRip - AVC
Видео: 1024*576, ~2300kb
Звук: MP3, 192Kb

Треклист:

01. Вступление
02. Always - Lara Fabian
03. Счастье ты мое - Алсу
04. Признание (Буду я любить) - Доминик Джокер
05. Где же ты? - Анжелика Варум
06. Понарошку - Сергей Лазарев
07. Папа, мама - A'Studio
08. Я люблю тебя до слез - Александр Серов
09. Я тебя отпустила - Валерия
10. Снится сон - Ани Лорак
11. Каждый день с тобой - Кристина Орбакайте
12. Это просто сон - Кристина Орбакайте
13. Я тебя не придумала - Алсу
14. Как быть? - Владимир Пресняков-мл.
15. Я тучи разведу руками - Ирина Аллегрова
16. Отпусти меня - Валерия
17. Мосты - Лариса Долина
18. Ястреб - Лев Лещенко
19. Один билет - Валерий Леонтьев
20. Акапулько - Лайма Вайкуле
21. Только раз - Филипп Киркоров
22. Все цветы - Николай Басков
23. Вишневая любовь - Николай Басков
24. Шарманка - Николай Басков
25. Сокровища Черного моря - Валерий Леонтьев
26. Пусть тебе приснится Пальма-де-Майорка - Игорь Крутой
2 часть:
01. Пусть тебе приснится Пальма-де-Майорка - Игорь Крутой
02. Незаконченный роман - Игорь Крутой и Ирина Аллегрова
03. Свадебные цветы - Ирина Аллегрова
04. Бабы-стервы - Ирина Аллегрова
05. Радость моя - Филипп Киркоров
06. Любовь усталых лебедей (Je t'aime encore) - Lara Fabian
07. О чем играет пианист? - Лайма Вайкуле
08. Мой друг - Игорь Крутой и Игорь Николаев
09. Звездопад - Игорь Николаев
10. Песня о Родине - Александр Буйнов
11. Ты меня любишь - Александр Серов
12. Мадонна - Александр Серов
13. Мой первый день - Ольга Кормухина
14. Зеркала - Ани Лорак
15. Начистоту - Эмин
16. Toccami - Lara Fabian
17. Мы так нелепо разошлись - Филипп Киркоров
18. Приглашение на закат - Алла Пугачева
19. 1000 лет - Алла Пугачева
20. Любовь похожая на сон - Алла Пугачева
21. Я смогу - Алла Пугачева
22. Игра - Алла Пугачева
23. Ангел-хранитель - Игорь Крутой и Все Звезды

Mediainfo:

M:DownloadsВ жизни раз бывает 60. Юбилейный концерт Игоря КрутогоВ жизни раз бывает 60. Юбилейный концерт Игоря Крутого 2ч.mp4
General
Complete name : M:DownloadsВ жизни раз бывает 60. Юбилейный концерт Игоря КрутогоВ жизни раз бывает 60. Юбилейный концерт Игоря Крутого 2ч.mp4
Format : MPEG-4
Format profile : Base Media
Codec ID : isom
File size : 1.90 GiB
Duration : 1h 48mn
Overall bit rate : 2 503 Kbps
Encoded date : UTC 1970-01-01 00:00:00
Tagged date : UTC 1970-01-01 00:00:00
Writing application : XviD4PSP 6.0 / 53.6.0
Video #1
ID : 1
Format : AVC
Format/Info : Advanced Video Codec
Format profile : High@L4.1
Format settings, CABAC : Yes
Format settings, ReFrames : 3 frames
Codec ID : avc1
Codec ID/Info : Advanced Video Coding
Duration : 1h 48mn
Bit rate mode : Variable
Bit rate : 2 306 Kbps
Width : 1 024 pixels
Height : 576 pixels
Display aspect ratio : 16:9
Frame rate mode : Constant
Frame rate : 25.000 fps
Resolution : 24 bits
Colorimetry : 4:2:0
Scan type : Progressive
Bits/(Pixel*Frame) : 0.156
Stream size : 1.75 GiB (92%)
Writing library : x264 core 116 r2019M 9cc407d
Encoding settings : cabac=1 / ref=3 / deblock=1:0:0 / analyse=0x3:0x133 / me=hex / subme=7 / psy=1 / psy_rd=1.00:0.20 / mixed_ref=1 / me_range=16 / chroma_me=1 / trellis=1 / 8x8dct=1 / cqm=0 / deadzone=21,11 / fast_pskip=1 / chroma_qp_offset=-3 / threads=8 / sliced_threads=0 / nr=0 / decimate=1 / interlaced=0 / bluray_compat=0 / constrained_intra=0 / bframes=3 / b_pyramid=1 / b_adapt=2 / b_bias=0 / direct=3 / weightb=1 / open_gop=0 / weightp=2 / keyint=250 / keyint_min=25 / scenecut=40 / intra_refresh=0 / rc_lookahead=40 / rc=crf / mbtree=1 / crf=23.0 / qcomp=0.60 / qpmin=10 / qpmax=51 / qpstep=4 / ip_ratio=1.40 / aq=1:1.00 / cabac=1 / ref=3 / deblock=1:0:0 / analyse=0x3:0x133 / me=hex / subme=7 / psy=1 / psy_rd=1.00:0.20 / mixed_ref=1 / me_range=16 / chroma_me=1 / trellis=1 / 8x8dct=1 / cqm=0 / deadzone=21,11 / fast_pskip=1 / chroma_qp_offset=-3 / threads=8 / sliced_threads=0 / nr=0 / decimate=1 / interlaced=0 / bluray_compat=0 / constrained_intra=0 / bframes=3 / b_pyramid=1 / b_adapt=2 / b_bias=0 / direct=3 / weightb=1 / open_gop=0 / weightp=2 / keyint=250 / keyint_min=25 / scenecut=40 / intra_refresh=0 / rc_lookahead=40 / rc=crf / mbtree=1 / crf=23.0 / qcomp=0.60 / qpmin=10 / qpmax=51 / qpstep=4 / ip_ratio=1.40 / aq=1:1.00
Encoded date : UTC 1970-01-01 00:00:00
Tagged date : UTC 1970-01-01 00:00:00
Audio #2
ID : 2
Format : MPEG Audio
Format version : Version 1
Format profile : Layer 2
Codec ID : 6B
Duration : 1h 48mn
Bit rate mode : Constant
Bit rate : 192 Kbps
Channel(s) : 2 channels
Sampling rate : 48.0 KHz
Resolution : 16 bits
Stream size : 149 MiB (8%)
Language : Russian
Encoded date : UTC 1970-01-01 00:00:00
Tagged date : UTC 1970-01-01 00:00:00

Скриншоты

[Профиль] [ЛС]
Кто просматривает тему:

Показать сообщения:    

Текущее время: Сегодня 12:13

Часовой пояс: GMT



Вы не можете начинать темы
Вы не можете отвечать на сообщения
Вы не можете редактировать свои сообщения
Вы не можете удалять свои сообщения
Вы не можете голосовать в опросах
Вы не можете прикреплять файлы к сообщениям
Вы не можете скачивать файлы