В долине Эла / In the Valley of Elah (2007) BDRip [1080p]

 
Автор Сообщение

sergej644 ®

Пол:

Стаж: 5 лет 9 месяцев

Сообщений: 6149

Откуда: Soviet Union



Награды: 9 (Подробнее)

Mega Seeder 4 (Количество: 1) Top Seeder 3 (Количество: 1) Top Seeder 2 (Количество: 1)
Торрент-статистика

Создавать темы 19-Янв-2015 23:12

[Цитировать]

-В долине Эла / In the Valley of Elah (2007) BDRip- Производство: Blackfriars Bridge, NALA Films LLC, Samuels Media, Summit Entertainment
Жанр: Триллер, Криминал, Детектив
Перевод: Дублированный
Субтитры: Вшитые (отключаемые)
Язык субтитров: Русские, английские
Режиссер: Пол Хаггис
Актеры: Томми Ли Джонс, Шарлиз Терон, Джейсон Патрик, Сьюзен Сарандон, Джеймс Франко, Бэрри Корбин, Джош Бролин, Фрэнсис Фишер, Уэс Чэтхэм, Джэйк МакЛафлин, Дженнифер Сибел, Зои Кэзен
Описание фильма:
Фильм повествует об офицере, чей сын-солдат немотивированно отправляется в самоволку вскоре после возвращения в Штаты из Ирака, и исчезает без следа. Местный полицейский детектив берется помочь офицеру в расследовании…

Продолжительность: 02:01:17
Качество видео: BDRip
Видеокодек: MPEG-4 AVC/H.264
Битрейт видео: ~11.4 Мбит/с
Размер кадра: 1920x800
Аудио 1: Русский DTS, 6 ch, 768 Кбит/с
Аудио 2: Английский DTS, 6 ch, 1536 Кбит/с-

MediaInfo:

General
Complete name : E:\NMN Club\V.doline.Ela.2007.BDRip.1080p.mkv
Format : Matroska
File size : 11.8 GiB
Duration : 2h 1mn
Overall bit rate : 13.9 Mbps
Encoded date : UTC 2008-09-06 13:34:26
Writing application : mkvmerge v2.2.0 ('Turn It On Again') built on Mar 4 2008 13:20:25
Writing library : libebml v0.7.7 + libmatroska v0.8.1
Video
ID : 1
Format : AVC
Format/Info : Advanced Video Codec
Format profile : [url=mailto:High@L4.1]High@L4.1[/url]
Format settings, CABAC : Yes
Format settings, ReFrames : 5 frames
Muxing mode : Container profile=Unknown@4.1
Codec ID : V_MPEG4/ISO/AVC
Duration : 2h 1mn
Bit rate : 11.4 Mbps
Nominal bit rate : 11.7 Mbps
Width : 1 920 pixels
Height : 800 pixels
Display aspect ratio : 2.40:1
Frame rate : 23.976 fps
Resolution : 8 bits
Colorimetry : 4:2:0
Scan type : Progressive
Bits/(Pixel*Frame) : 0.310
Stream size : 9.65 GiB (82%)
Title : In.the.Valley.of.Elah.2007.1080p
Writing library : x264 core 58 svn-736M
Encoding settings : cabac=1 / ref=5 / deblock=1:-3:-3 / analyse=0x3:0x113 / me=umh / subme=7 / me-prepass=0 / brdo=1 / mixed_ref=1 / me_range=16 / chroma_me=1 / trellis=1 / 8x8dct=1 / cqm=2 / deadzone=21,11 / chroma_qp_offset=0 / threads=6 / nr=0 / decimate=0 / mbaff=0 / bframes=3 / b_pyramid=1 / b_adapt=1 / b_bias=0 / direct=3 / wpredb=1 / bime=1 / keyint=250 / keyint_min=25 / scenecut=40(pre) / rc=2pass / bitrate=11680 / ratetol=1.0 / rceq='blurCplx^(1-qComp)' / qcomp=1.00 / qpmin=10 / qpmax=51 / qpstep=4 / cplxblur=20.0 / qblur=0.5 / ip_ratio=1.40 / pb_ratio=1.30 / aq=1:0.3:13.0
Language : English
Audio #1
ID : 2
Format : DTS
Format/Info : Digital Theater Systems
Codec ID : A_DTS
Duration : 2h 1mn
Bit rate mode : Constant
Bit rate : 755 Kbps
Channel(s) : 6 channels
Channel positions : Front: L C R, Surround: L R, LFE
Sampling rate : 48.0 KHz
Resolution : 24 bits
Stream size : 655 MiB (5%)
Language : Russian
Audio #2
ID : 3
Format : DTS
Format/Info : Digital Theater Systems
Codec ID : A_DTS
Duration : 2h 1mn
Bit rate mode : Constant
Bit rate : 1 510 Kbps
Channel(s) : 6 channels
Channel positions : Front: L C R, Surround: L R, LFE
Sampling rate : 48.0 KHz
Resolution : 24 bits
Stream size : 1.28 GiB (11%)
Language : English
Text #1
ID : 4
Format : ASS
Codec ID : S_TEXT/ASS
Codec ID/Info : Advanced Sub Station Alpha
Language : Russian
Text #2
ID : 5
Format : UTF-8
Codec ID : S_TEXT/UTF8
Codec ID/Info : UTF-8 Plain Text
Language : English
-Скриншоты:
Время раздачи: 24/7 - круглосуточно
[Профиль] [ЛС]
Кто просматривает тему:

Показать сообщения:    

Текущее время: Сегодня 11:16

Часовой пояс: GMT



Вы не можете начинать темы
Вы не можете отвечать на сообщения
Вы не можете редактировать свои сообщения
Вы не можете удалять свои сообщения
Вы не можете голосовать в опросах
Вы не можете прикреплять файлы к сообщениям
Вы не можете скачивать файлы