В воскресенье рано зелье копала [01-24 из 24] (2019) WEB-DLRip

 
Author Message

Pensioner ®

Longevity: 3 years 2 months

Posts: 514

Location: Казахстан



: 5 ()

За внесенный вклад в развитие сайта (1) Mega Seeder 1 (1) Top Releaser 2 (1)
Торрент-статистика

Post 16-Feb-2019 09:20

[Quote]

Информация о фильме
Оригинальное название: В воскресенье рано зелье копала
Год выхода: 2019
Жанр: Мелодрама, мистика
Режиссер: Александр Тименко
В ролях: Екатерина Варченко, Дмитрий Пчела, Виктория Полторак, Андрей Ланд, Олеся Жураковская, Артур Логай, Анна Сагайдачная, Ксения Мишина, Игорь Крикунов, Андрей Исаенко, Лилия Нагорная, Маргарита Бахтина, Ирина Мельник, Тамара Антропова, Оксана Воронина, Екатерина Кистень, Юрий Яковлев-Суханов, Игорь Назаров, Людмила Крикунова, Юлия Шугар, Мирослав Павличенко
О фильме:
В маленьких селах, где соблюдаются традиции еще с древних времен, всегда случается что-то загадочное и неизвестное. Гадалки, приговоры, привороты и прочие магические дела в таких местах зачастую скрывают, и лишь иногда приезжие ребята узнают всю правду о местных ворожеях. Но не всегда эти новые знания остаются просто знаниями, ведь они могут привести к неприятностям, после которых уже сложнее будет продолжать жить как ни в чем не бывало. Эта история берёт своё начало в 1993 году. Именно тогда, в те годы молодой, перспективный и красивый аспирант-филолог Максим приезжает в село Русалино собирать старинный фольклор для своих трудов. Уговорила его приехать в это село студентка Люба, ведь в Русалино живет ее тетя Варвара, а местность славится тем, что в ней сохранено много старинных песен, обрядов. Девушка искренне верит, что их научная путешествие поможет им сблизиться, ведь она невероятно влюблена в Максима. Люба и не догадывается, что здесь Максим познакомится с цыганкой Радой, которая на всю жизнь украдет его сердце...
Страна: Россия, Украина
Студия: Кинокомпания "Star Media"
Продолжительность: х 00:49:50
Перевод: Не требуется
Файл
Кодек: XviD
Качество: WEB-DLRip
Видео: XviD, ~ 1604 Кбит/с, 720x400, 25 кадр/с
Звук: AC3, 2 ch, 192 Кбит/с

Скриншоты



MediaInfo

General
Complete name : C:02.В воскресенье рано зелье копала.(2019).WEB-DLRip.by.Nicodem.Files-x.avi
Format : AVI
Format/Info : Audio Video Interleave
File size : 652 MiB
Duration : 50mn 26s
Overall bit rate : 1 806 Kbps
Writing application : VirtualDubMod 1.5.10.3 | www.virtualdub-fr.org || (build 2550/release)
Writing library : VirtualDubMod build 2550/release
Video
ID : 0
Format : MPEG-4 Visual
Format profile : Advanced Simple@L5
Format settings, BVOP : 1
Format settings, QPel : No
Format settings, GMC : No warppoints
Format settings, Matrix : Custom
Codec ID : XVID
Codec ID/Hint : XviD
Duration : 50mn 26s
Bit rate : 1 604 Kbps
Width : 720 pixels
Height : 400 pixels
Display aspect ratio : 16:9
Frame rate : 25.000 fps
Color space : YUV
Chroma subsampling : 4:2:0
Bit depth : 8 bits
Scan type : Progressive
Compression mode : Lossy
Bits/(Pixel*Frame) : 0.223
Stream size : 579 MiB (89%)
Writing library : XviD 73
Audio
ID : 1
Format : AC-3
Format/Info : Audio Coding 3
Mode extension : CM (complete main)
Codec ID : 2000
Duration : 50mn 26s
Bit rate mode : Constant
Bit rate : 192 Kbps
Channel(s) : 2 channels
Channel positions : Front: L R
Sampling rate : 48.0 KHz
Bit depth : 16 bits
Compression mode : Lossy
Stream size : 69.3 MiB (11%)
Alignment : Split accross interleaves
Interleave, duration : 40 ms (1.00 video frame)
Interleave, preload duration : 500 ms
Добавлены 1-24 серии.
Сериал залит полностью.


Last edited by Pensioner on 2019-03-02 06:19; edited 1 time in total
[Profile] [PM]

Pensioner ®

Longevity: 3 years 2 months

Posts: 514

Location: Казахстан



: 5 ()

Top Releaser 2 (1) Mega Seeder 2 (1) Mega Seeder 1 (1)
Торрент-статистика

Post 02-Mar-2019 06:20 (after 13 days)

[Quote]

Добавлены 17-24 серии.
[Profile] [PM]
Кто просматривает тему:

Display posts from previous:    

The time now is: Today 22:45

All times are GMT



You cannot post new topics in this forum
You cannot reply to topics in this forum
You cannot edit your posts in this forum
You cannot delete your posts in this forum
You cannot vote in polls in this forum
You cannot attach files in this forum
You cannot download files in this forum