В воздухе / Aloft (2014) HDRip | Р | Line

 
Автор Сообщение

ODESSA ®

Пол:

Стаж: 1 год 7 месяцев

Сообщений: 403

Откуда: ODESSA



Награды: Нет

Торрент-статистика

Создавать темы 01-Авг-2016 09:59

[Цитировать]

В воздухе / Aloft
Страна: Испания Канада Франция
Производство: Arcadia Motion Pictures, Buffalo Gal Pictures, Manitoba Films AIE, Noodles Production
Год выпуска: 2014
Жанр: драма
Продолжительность: 01:36:41
Режиссер: Клаудия Льоса
Автор сценария: Клаудия Льоса
В ролях: Дженнифер Коннелли, Киллиан Мёрфи, Мелани Лоран, Уна Чаплин, Иэн Трейси, Питер МакРобби, Зен МакГрат, Уильям Шимелл
Описание: Иван — маленький мальчик, его мама, Нана, работает на ферме. Она заботится о нем и о его младшем брате Галли, чье психическое состояние ухудшается из-за изнурительной болезни. Однажды к ним приезжает целитель, благодаря которому Нана обнаруживает свои собственные целительные силы…

Перевод: Профессиональный (многоголосый, закадровый) | чистый звук
Субтитры: нет-Качество: HDRip
Формат: АVI
Видео кодек: XviD
Аудио кодек: АС3
Видео: 720x304 (2.35:1), 24.000 fps, XviD build 65 ~1958 kbps avg, 0.373 bit/pixel
Аудио: 48.0 kHz, AC3 Dolby Digital, 2/0 (L,R) ch, ~192 kbps
Бюджет: $8 000 000
Дата премьеры (мир): 12 февраля 2014

Media Info

General
Format : AVI
Format/Info : Audio Video Interleave
File size : 1.46 GiB
Duration : 1h 36mn
Overall bit rate : 2 160 Kbps
Writing application : VirtualDubMod 1.5.10.3 | (build 2550/release)
Writing library : VirtualDubMod build 2550/release
Video
ID : 0
Format : MPEG-4 Visual
Format profile : Advanced Simple@L5
Format settings, BVOP : 1
Format settings, QPel : No
Format settings, GMC : No warppoints
Format settings, Matrix : Custom
Codec ID : XVID
Codec ID/Hint : XviD
Duration : 1h 36mn
Bit rate : 1 958 Kbps
Width : 720 pixels
Height : 304 pixels
Display aspect ratio : 2.35:1
Frame rate : 24.000 fps
Color space : YUV
Chroma subsampling : 4:2:0
Bit depth : 8 bits
Scan type : Progressive
Compression mode : Lossy
Bits/(Pixel*Frame) : 0.373
Stream size : 1.32 GiB (91%)
Writing library : XviD 65
Audio
ID : 1
Format : AC-3
Format/Info : Audio Coding 3
Mode extension : CM (complete main)
Format settings, Endianness : Big
Codec ID : 2000
Duration : 1h 36mn
Bit rate mode : Constant
Bit rate : 192 Kbps
Channel(s) : 2 channels
Channel positions : Front: L R
Sampling rate : 48.0 KHz
Frame rate : 31.250 fps (1536 spf)
Compression mode : Lossy
Stream size : 133 MiB (9%)
Alignment : Split accross interleaves
Interleave, duration : 42 ms (1.00 video frame)
Interleave, preload duratio : 500 ms

Скриншоты

[Профиль] [ЛС]
Кто просматривает тему:

Показать сообщения:    

Текущее время: Сегодня 14:28

Часовой пояс: GMT



Вы не можете начинать темы
Вы не можете отвечать на сообщения
Вы не можете редактировать свои сообщения
Вы не можете удалять свои сообщения
Вы не можете голосовать в опросах
Вы не можете прикреплять файлы к сообщениям
Вы не можете скачивать файлы