В воздухе / Aloft (2014) BDRip 1080p | L1

 
Автор Сообщение

BOSS ®

Пол:

Стаж: 2 года 1 месяц

Сообщений: 3718

Откуда: ODESSA



Награды: 20 (Подробнее)

Top Seeder 2 (Количество: 1) За внесенный вклад в развитие сайта (Количество: 1) Mega Releaser 3 (Количество: 1)
Торрент-статистика

Создавать темы 20-Окт-2015 04:49

[Цитировать]

Название: В воздухе
Оригинальное название: Aloft
Год выпуска: 2014
Жанр: Драма
Режиссер: Клаудия Льоса
В ролях: Дженнифер Коннелли, Киллиан Мёрфи, Мелани Лоран, Уна Чаплин, Питер МакРобби, Иэн Трейси, Зен МакГрат, Уильям Шимелл, Винта МакГрат, Энди Мюррэй
О фильме:
Иван - маленький мальчик, его мама, Нана, работает на ферме. Она заботится о нем и о его младшем брате Галли, чье психическое состояние ухудшается из-за изнурительной болезни. Однажды к ним приезжает целитель, благодаря которому Нана обнаруживает свои собственные целительные силы…

Страна: Испания, Канада, Франция, Arcadia Motion Pictures, Buffalo Gal Pictures, Manitoba Films AIE, Noodles Production, Wanda Visión S.A.
Продолжительность: 01:36:41
Перевод: Любительский одноголосый (Павел Морозов aka PashaUp)
Кодек: H.264
Качество: BDRip 1080p
Видео: MPEG-4 AVC, 9507 Кбит/с, 1920х804, 24.000 кадр/с
Перевод: Русский (AC3, 6 ch, 448 Кбит/с), (DTS, 6 ch, 960 Кбит/с), английский (DTS, 6 ch, 960 Кбит/с)
Субтитры: Английские, испанские

Инфо-файл

Полное имя : D:Aloft.2014.x264.BDRip.1080p.NovaLan.mkv
Формат : Matroska
Версия формата : Version 4 / Version 2
Размер файла : 8,02 Гбайт
Продолжительность : 1 ч. 36 м.
Общий поток : 11,9 Мбит/сек
Название фильма : Aloft 2014 - NovaLan
Дата кодирования : UTC 2015-10-20 00:25:45
Программа кодирования : mkvmerge v8.3.0 ('Over the Horizon') 64bit
Библиотека кодирования : libebml v1.3.1 + libmatroska v1.4.2
DURATION : 01:27:27.208000000
NUMBER_OF_FRAMES : 811
NUMBER_OF_BYTES : 23524
_STATISTICS_WRITING_APP : mkvmerge v8.3.0 ('Over the Horizon') 64bit
_STATISTICS_WRITING_DATE_UTC : 2015-10-20 00:25:45
_STATISTICS_TAGS : BPS DURATION NUMBER_OF_FRAMES NUMBER_OF_BYTES
Видео
Идентификатор : 1
Формат : AVC
Формат/Информация : Advanced Video Codec
Профиль формата : High@L4.1
Параметр CABAC формата : Да
Параметр ReFrames формата : 4 кадра
Идентификатор кодека : V_MPEG4/ISO/AVC
Продолжительность : 1 ч. 36 м.
Битрейт : 9507 Кбит/сек
Ширина : 1920 пикселей
Высота : 804 пикселя
Соотношение сторон : 2,40:1
Частота кадров : 24,000 кадра/сек
Цветовое пространство : YUV
Субдискретизация насыщенности : 4:2:0
Битовая глубина : 8 бит
Тип развёртки : Прогрессивная
Бит/(Пиксели*Кадры) : 0.257
Размер потока : 6,26 Гбайт (78%)
Заголовок : Sergei7721
Библиотека кодирования : x264 core 146 r2538 121396c
Настройки программы : cabac=1 / ref=4 / deblock=1:-1:-1 / analyse=0x3:0x113 / me=umh / subme=11 / psy=1 / psy_rd=1.00:0.20 / mixed_ref=1 / me_range=24 / chroma_me=1 / trellis=2 / 8x8dct=1 / cqm=0 / deadzone=21,11 / fast_pskip=0 / chroma_qp_offset=-3 / threads=12 / lookahead_threads=1 / sliced_threads=0 / nr=0 / decimate=0 / interlaced=0 / bluray_compat=0 / constrained_intra=0 / bframes=6 / b_pyramid=2 / b_adapt=2 / b_bias=0 / direct=3 / weightb=1 / open_gop=0 / weightp=2 / keyint=240 / keyint_min=24 / scenecut=40 / intra_refresh=0 / rc_lookahead=40 / rc=2pass / mbtree=0 / bitrate=9507 / ratetol=1.0 / qcomp=0.60 / qpmin=0 / qpmax=69 / qpstep=4 / cplxblur=20.0 / qblur=0.5 / vbv_maxrate=50000 / vbv_bufsize=62500 / nal_hrd=none / filler=0 / ip_ratio=1.40 / pb_ratio=1.30 / aq=1:1.00
Default : Да
Forced : Нет
DURATION : 01:36:41.250000000
NUMBER_OF_FRAMES : 139230
NUMBER_OF_BYTES : 6889239434
_STATISTICS_WRITING_APP : mkvmerge v8.3.0 ('Over the Horizon') 64bit
_STATISTICS_WRITING_DATE_UTC : 2015-10-20 00:25:45
_STATISTICS_TAGS : BPS DURATION NUMBER_OF_FRAMES NUMBER_OF_BYTES
Аудио #1
Идентификатор : 2
Формат : AC-3
Формат/Информация : Audio Coding 3
Расширение режима : CM (complete main)
Параметр Endianness формата : Big
Идентификатор кодека : A_AC3
Продолжительность : 1 ч. 36 м.
Вид битрейта : Постоянный
Битрейт : 448 Кбит/сек
Каналы : 6 каналов
Расположение каналов : Front: L C R, Side: L R, LFE
Частота : 48,0 КГц
Битовая глубина : 16 бит
Метод сжатия : С потерями
Размер потока : 310 Мбайт (4%)
Язык : Russian
Default : Да
Forced : Нет
Аудио #2
Идентификатор : 3
Формат : DTS
Формат/Информация : Digital Theater Systems
Идентификатор кодека : A_DTS
Продолжительность : 1 ч. 36 м.
Вид битрейта : Постоянный
Битрейт : 960 Кбит/сек
Каналы : 6 каналов
Расположение каналов : Front: L C R, Side: L R, LFE
Частота : 48,0 КГц
Битовая глубина : 16 бит
Метод сжатия : С потерями
Размер потока : 664 Мбайт (8%)
Язык : Russian
Default : Нет
Forced : Нет
Аудио #3
Идентификатор : 4
Формат : DTS
Формат/Информация : Digital Theater Systems
Идентификатор кодека : A_DTS
Продолжительность : 1 ч. 36 м.
Вид битрейта : Постоянный
Битрейт : 960 Кбит/сек
Каналы : 6 каналов
Расположение каналов : Front: L C R, Side: L R, LFE
Частота : 48,0 КГц
Битовая глубина : 16 бит
Метод сжатия : С потерями
Размер потока : 664 Мбайт (8%)
Язык : English
Default : Нет
Forced : Нет
Текст #1
Идентификатор : 5
Формат : UTF-8
Идентификатор кодека : S_TEXT/UTF8
Идентификатор кодека/Информация : UTF-8 Plain Text
Язык : English
Default : Нет
Forced : Нет
Текст #2
Идентификатор : 6
Формат : UTF-8
Идентификатор кодека : S_TEXT/UTF8
Идентификатор кодека/Информация : UTF-8 Plain Text
Язык : Spanish
Default : Нет
Forced : Нет
Меню
00:00:00.000 : en:00:00:00.000
00:14:50.833 : en:00:14:50.833
00:24:11.208 : en:00:24:11.208
00:34:39.541 : en:00:34:39.541
00:46:41.208 : en:00:46:41.208
00:57:21.291 : en:00:57:21.291
01:09:19.500 : en:01:09:19.500
01:20:20.000 : en:01:20:20.000
Релиз группа NovaLan
Автор релиза Sergei7721


[Профиль] [ЛС]
Кто просматривает тему:

Показать сообщения:    

Текущее время: Сегодня 12:27

Часовой пояс: GMT



Вы не можете начинать темы
Вы не можете отвечать на сообщения
Вы не можете редактировать свои сообщения
Вы не можете удалять свои сообщения
Вы не можете голосовать в опросах
Вы не можете прикреплять файлы к сообщениям
Вы не можете скачивать файлы