В былые времена / Back in the Day (2016) WEB-DL 720p | L

 
Автор Сообщение

достали все ®

Пол:

Стаж: 1 год 8 месяцев

Сообщений: 6581



Награды: 12 (Подробнее)

Top Releaser 2 (Количество: 1) Mega Releaser 2 (Количество: 1) Mega Seeder 2 (Количество: 1)
Торрент-статистика

Создавать темы 17-Июн-2016 15:15

[Цитировать]

Информация о фильме
Название: В былые времена
Оригинальное название: Back in the Day
Год выхода: 2016
Жанр: драма, спорт
Режиссер: Пол Боргезе
В ролях: Алек Болдуин, Майкл Мэдсен, Шэннен Доэрти, Аннабелла Шиорра, Дэнни Гловер, Уильям ДеМео, Лилло Бранкато, Майк Тайсон, Джозеф Д'Онофрио, Пол Боргезе
О фильме: Детство и юность профессионального боксера Энтони Родригеса не были безоблачными. Вспоминая прежние деньки, он мысленно возвращается на бруклинскую улицу Бенсонхерст конца 80-х. Здесь было полно хулиганов, сомнительных заведений, часто слышались выстрелы. Наполовину итальянец, наполовину пуэрториканец, он вырос в жестоком мире насилия и расизма, терпел оскорбления, испытывал нужду. Безработному отцу-алкоголику было наплевать на сына, а заботливая и трудолюбивая мать умерла довольно рано. Не смотря на горечь утраты, Энтони изо всех сил пытался придерживаться моральных устоев, которые она ему привила, и всегда сохранять чувство собственного достоинства. На него обратил внимание босс местной мафии Энцо Девино, он взял парня под свое крыло, когда тот решил заниматься боксом. Энтони стал превращаться в сильного бойца, но здесь бокс был серьезным бизнесом, а Родригес мечтал о спортивной карьере. Для подростка из неблагополучного района добиться успеха в профессиональном боксе – цель почти недостижимая. И все же Энтони многое удалось. Вот только какой ценой?

Выпущено: США / Tappan Films, The Movie Group Inc.
Продолжительность: 02:01:14
Озвучивание: Любительское (многоголосое) [Paradox & Omskbird records]
Роли озвучивали: Алекс Дьяк, Павел Ярощик, Константин Погодаев, Владислав Данилов, Наталья Ланц
Перевод: Анна Помигуева
Примечание: Релиз без рекламы.
Файл
Формат: MKV
Качество: WEB-DL 720p
Видео: MPEG-4 AVC, 3962 kb/s, 1280x536
Аудио: Russian: AC3, 192 kb/s (2 ch) / English: AC3, 384 kb/s (6 ch)
Субтитры: English

MI

Format : Matroska
Format version : Version 2
File size : 3.92 GiB
Duration : 2h 1mn
Overall bit rate : 4 630 Kbps
Encoded date : UTC 2016-06-17 12:25:03
Writing application : mkvmerge v7.8.0 ('River Man') 32bit built on Apr 3 2015 12:11:22
Writing library : libebml v1.3.1 + libmatroska v1.4.2
Video
ID : 1
Format : AVC
Format/Info : Advanced Video Codec
Format profile : Main@L3.1
Format settings, CABAC : No
Format settings, ReFrames : 2 frames
Codec ID : V_MPEG4/ISO/AVC
Duration : 2h 1mn
Bit rate : 3 962 Kbps
Width : 1 280 pixels
Height : 536 pixels
Display aspect ratio : 2.40:1
Frame rate mode : Constant
Frame rate : 23.976 fps
Color space : YUV
Chroma subsampling : 4:2:0
Bit depth : 8 bits
Scan type : Progressive
Bits/(Pixel*Frame) : 0.241
Stream size : 3.35 GiB (86%)
Language : English
Default : Yes
Forced : No
Color range : Limited
Color primaries : BT.709
Transfer characteristics : BT.709
Matrix coefficients : BT.709
Audio #1
ID : 2
Format : AC-3
Format/Info : Audio Coding 3
Mode extension : CM (complete main)
Format settings, Endianness : Big
Codec ID : A_AC3
Duration : 2h 1mn
Bit rate mode : Constant
Bit rate : 192 Kbps
Channel(s) : 2 channels
Channel positions : Front: L R
Sampling rate : 48.0 KHz
Bit depth : 16 bits
Compression mode : Lossy
Stream size : 166 MiB (4%)
Language : Russian
Default : Yes
Forced : No
Audio #2
ID : 3
Format : AC-3
Format/Info : Audio Coding 3
Mode extension : CM (complete main)
Format settings, Endianness : Big
Codec ID : A_AC3
Duration : 2h 1mn
Bit rate mode : Constant
Bit rate : 384 Kbps
Channel(s) : 6 channels
Channel positions : Front: L C R, Side: L R, LFE
Sampling rate : 48.0 KHz
Bit depth : 16 bits
Compression mode : Lossy
Stream size : 333 MiB (8%)
Language : English
Default : No
Forced : No
Text
ID : 4
Format : UTF-8
Codec ID : S_TEXT/UTF8
Codec ID/Info : UTF-8 Plain Text
Language : English
Default : No
Forced : No
Menu
00:00:00.000 : en:1
00:07:41.000 : en:2
00:17:18.000 : en:3
00:25:46.000 : en:4
00:34:36.000 : en:5
00:43:17.000 : en:6
00:51:32.000 : en:7
00:58:42.000 : en:8
01:08:20.000 : en:9
01:15:54.000 : en:10
01:24:48.000 : en:11
01:31:18.000 : en:12
01:40:51.000 : en:13
01:48:13.000 : en:14
01:56:50.000 : en:15

Скриншоты




[Профиль] [ЛС]
Кто просматривает тему:

Показать сообщения:    

Текущее время: Сегодня 02:15

Часовой пояс: GMT



Вы не можете начинать темы
Вы не можете отвечать на сообщения
Вы не можете редактировать свои сообщения
Вы не можете удалять свои сообщения
Вы не можете голосовать в опросах
Вы не можете прикреплять файлы к сообщениям
Вы не можете скачивать файлы