(Pop) Вячеслав Быков - Девочка моя - 1999 [APE, image +.cue, lossless]

 
Автор Сообщение

sergej644 ®

Пол:

Стаж: 4 года 11 месяцев

Сообщений: 6042

Откуда: Soviet Union



Награды: Нет

Торрент-статистика

Создавать темы 17-Сен-2016 09:12

[Цитировать]

-Вячеслав Быков - Девочка моя--
Год издания: 1999
Страна: Russia
Жанр: Pop
Продолжительность: 00:39:39-Лейбл издания: Студия "Союз"
Страна-выпуска диска: Russia
Номер по каталогу: SZCD 1178-99-Формат: APE
Битрейт аудио: Lossless
Тип рипа: image +.cue
Наличие сканов в содержимом раздачи: да
-

Трэклист


01.ты дождись меня(3:50)
02.титаник(4:02)
03.девочка моя(5:07)
04.островок любви(3:47)
05.с севера на юг(3:48)
06.далеко-далеко(4:02)
07.холода(3:12)
08.девушка пела в церковном хоре(4:01)
09.в европе дождь(3:42)
10.я твой, а ты моя(4:09)[/color
-

Лог создания рипа

Exact Audio Copy V0.99 prebeta 5 from 4. May 2009
Отчёт EAC об извлечении, выполненном 30. сентября 2009, 15:00
быков вячеслав / девочка моя
Дисковод: HL-DT-STDVD-RAM GH22NS30   Adapter: 3  ID: 0
Режим чтения                 : Достоверность
Использование точного потока : Да
Отключение кэша аудио        : Да
Использование указателей C2  : Нет
Коррекция смещения при чтении                     : 102
Способность читать области Lead-in и Lead-out     : Нет
Заполнение пропущенных сэмплов тишиной            : Да
Удаление блоков с тишиной в начале и конце        : Нет
При вычислениях CRC использовались нулевые сэмплы : Да
Интерфейс                                         : Установленный внешний ASPI-интерфейс
Выходной формат : Внутренние WAV-операции
Формат сэмплов  : 44.100 Гц; 16 бит; стерео
TOC извлечённого CD
     Трек |   Старт  | Длительность | Начальный сектор | Конечный сектор
    ---------------------------------------------------------------------
       1  |  0:00.10 |    3:49.65   |          10      |      17249
       2  |  3:50.00 |    4:02.02   |       17250      |      35401
       3  |  7:52.02 |    5:06.64   |       35402      |      58415
       4  | 12:58.66 |    3:47.02   |       58416      |      75442
       5  | 16:45.68 |    3:48.35   |       75443      |      92577
       6  | 20:34.28 |    4:01.62   |       92578      |     110714
       7  | 24:36.15 |    3:11.74   |      110715      |     125113
       8  | 27:48.14 |    4:00.56   |      125114      |     143169
       9  | 31:48.70 |    3:41.49   |      143170      |     159793
      10  | 35:30.44 |    4:08.65   |      159794      |     178458
Характеристики диапазона извлечения и сообщения об ошибках
Выбранный диапазон
     Имя файла C:\Users\EDDYSS@N\Desktop\Вячеслав Быков - Девочка моя(lossless)\быков вячеслав - девочка моя.wav
     Пиковый уровень 100.0 %
     Качество диапазона 100.0 %
     CRC копии C6DDB375
     Копирование... OK
Ошибок не произошло
AccurateRip: сводка
Трек  1  точность не определена (достоверность 1)  [A1DAEB0B], AccurateRip вернул [CE827256]
Трек  2  точность не определена (достоверность 1)  [6C49B9A9], AccurateRip вернул [97AA80F8]
Трек  3  точность не определена (достоверность 2)  [0BA5CBEA], AccurateRip вернул [9AAE043B]
Трек  4  точность не определена (достоверность 1)  [3B112157], AccurateRip вернул [8DF58A59]
Трек  5  точность не определена (достоверность 1)  [DEBCD40C], AccurateRip вернул [7156C90F]
Трек  6  точность не определена (достоверность 1)  [1D9DBB28], AccurateRip вернул [764AD9DD]
Трек  7  точность не определена (достоверность 1)  [A1883116], AccurateRip вернул [3B925EA6]
Трек  8  точность не определена (достоверность 1)  [2863ACC8], AccurateRip вернул [913B07D8]
Трек  9  точность не определена (достоверность 1)  [4C66839A], AccurateRip вернул [B05FBA5D]
Трек 10  точность не определена (достоверность 1)  [8383C1BB], AccurateRip вернул [EF9E6CEB]
Ни один трек не прошёл проверки на точность
В вашей базе может быть иной вариант штамповки диска
Конец отчёта

Индексная карта (non-compilant .cue)

REM GENRE Pop
REM DATE 1999
REM DISCID 70094B0A
REM COMMENT "ExactAudioCopy v0.99pb5"
PERFORMER "быков вячеслав"
TITLE "девочка моя"
FILE "быков вячеслав - девочка моя.wav" WAVE
  TRACK 01 AUDIO
    TITLE "ты дождись меня"
    PERFORMER "быков вячеслав"
    INDEX 00 00:00:00
    INDEX 01 00:00:10
  TRACK 02 AUDIO
    TITLE "титаник"
    PERFORMER "быков вячеслав"
    INDEX 00 03:48:30
    INDEX 01 03:50:00
  TRACK 03 AUDIO
    TITLE "девочка моя"
    PERFORMER "быков вячеслав"
    INDEX 00 07:50:32
    INDEX 01 07:52:02
  TRACK 04 AUDIO
    TITLE "островок любви"
    PERFORMER "быков вячеслав"
    INDEX 00 12:57:21
    INDEX 01 12:58:66
  TRACK 05 AUDIO
    TITLE "с севера на юг"
    PERFORMER "быков вячеслав"
    INDEX 00 16:44:23
    INDEX 01 16:45:68
  TRACK 06 AUDIO
    TITLE "далеко-далеко"
    PERFORMER "быков вячеслав"
    INDEX 00 20:32:58
    INDEX 01 20:34:28
  TRACK 07 AUDIO
    TITLE "холода"
    PERFORMER "быков вячеслав"
    INDEX 00 24:34:45
    INDEX 01 24:36:15
  TRACK 08 AUDIO
    TITLE "девушка пела в церковном хоре"
    PERFORMER "быков вячеслав"
    INDEX 00 27:46:44
    INDEX 01 27:48:14
  TRACK 09 AUDIO
    TITLE "в европе дождь"
    PERFORMER "быков вячеслав"
    INDEX 00 31:47:25
    INDEX 01 31:48:70
  TRACK 10 AUDIO
    TITLE "я твой, а ты моя"
    PERFORMER "быков вячеслав"
    INDEX 00 35:28:74
    INDEX 01 35:30:44
--
[Профиль] [ЛС]
Кто просматривает тему:

Форум Тема Автор Размер
Pop (Pop) Вячеслав Быков - 15 лет спустя - 2013 [FLAC, image +.cue, lossless] sergej644 470 MB
Показать сообщения:    

Текущее время: Сегодня 16:16

Часовой пояс: GMT



Вы не можете начинать темы
Вы не можете отвечать на сообщения
Вы не можете редактировать свои сообщения
Вы не можете удалять свои сообщения
Вы не можете голосовать в опросах
Вы не можете прикреплять файлы к сообщениям
Вы не можете скачивать файлы