Вышибала: Эпический замес / Goon: Last of the Enforcers (2017) BDRip 1080p | L

 
Автор Сообщение

BOSS ®

Пол:

Стаж: 3 года 2 месяца

Сообщений: 8630

Откуда: ODESSA



Награды: 22 (Подробнее)

Top Seeder 4 (Количество: 1) Top Keeper 4 (Количество: 1) Mega Releaser 3 (Количество: 1)
Торрент-статистика

Создавать темы 11-Окт-2017 10:30

[Цитировать]

Информация о фильме
Название: Вышибала: Эпический замес
Оригинальное название: Goon: Last of the Enforcers
Год выхода: 2017
Жанр: комедия, спорт
Режиссер: Джей Барушель
В ролях: Шонн Уильям Скотт, Джей Барушель, ТиДжей Миллер, Элиша Катберт, Лив Шрайбер, Уайатт Расселл, Элисон Пилл, Ким Коутс, Каллум Кит Ренни, Марк-Андре Гронден
О фильме:
Даг - хоккеист, который совершенно не умеет играть в хоккей, но запросто может положить любого с помощью своих могучих кулаков. В результате травмы ударной правой руки ему приходится покинуть хоккей. Но как смириться со скучной офисной работой, когда капитаном твоей команды становится какой-то наглый мордоворот. Дагу придется объединиться со своим злейшим врагом, чтобы вернуться на лед и сделать своих соперников одной левой. Больше отжига, больше беспредела!

Страна: Канада
Студия: Caramel Film, No Trace Camping
Продолжительность: 01:41:41
Перевод: Любительский многоголосый [Студия "Paradox" & Omskbird records]
• Перевод: Екатерина Полева
• Роли озвучивали: Денис Строев, Павел Ярощик, Константин Погодаев, Екатерина Кабашова
• Звукорежиссер: Павел Квентов
Присутствует реклама!
Файл
Кодек: H.264
Качество: BDRip 1080p
Видео: MPEG-4 AVC, 9505 kbps, 1920x808, 23.976 fps
Звук: 48 kHz, AC3 Dolby Digital, 2/0 (L,R) ch, ~192 kbps

MediaInfo

Format : Matroska
Format version : Version 4 / Version 2
File size : 6.89 GiB
Duration : 1 h 41 min
Overall bit rate : 9 699 kb/s
Encoded date : UTC 2017-10-11 06:04:48
Writing application : mkvmerge v9.3.1 ('Mask Machine') 64bit
Writing library : libebml v1.3.4 + libmatroska v1.4.5
Video
ID : 1
Format : AVC
Format/Info : Advanced Video Codec
Format profile : Main@L4.1
Format settings, CABAC : Yes
Format settings, ReFrames : 3 frames
Codec ID : V_MPEG4/ISO/AVC
Duration : 1 h 41 min
Bit rate : 9 505 kb/s
Width : 1 920 pixels
Height : 808 pixels
Display aspect ratio : 2.40:1
Frame rate mode : Constant
Frame rate : 23.976 (24000/1001) FPS
Standard : NTSC
Color space : YUV
Chroma subsampling : 4:2:0
Bit depth : 8 bits
Scan type : Progressive
Bits/(Pixel*Frame) : 0.256
Stream size : 6.75 GiB (98%)
Language : English
Default : Yes
Forced : No
Color range : Limited
Color primaries : BT.709
Transfer characteristics : BT.709
Matrix coefficients : BT.709
Audio
ID : 2
Format : AC-3
Format/Info : Audio Coding 3
Mode extension : CM (complete main)
Format settings, Endianness : Big
Codec ID : A_AC3
Duration : 1 h 41 min
Bit rate mode : Constant
Bit rate : 192 kb/s
Channel(s) : 2 channels
Channel positions : Front: L R
Sampling rate : 48.0 kHz
Frame rate : 31.250 FPS (1536 spf)
Compression mode : Lossy
Stream size : 140 MiB (2%)
Default : Yes
Forced : No

Скриншоты

[Профиль] [ЛС]
Показать сообщения:    

Текущее время: Сегодня 12:53

Часовой пояс: GMT



Вы не можете начинать темы
Вы не можете отвечать на сообщения
Вы не можете редактировать свои сообщения
Вы не можете удалять свои сообщения
Вы не можете голосовать в опросах
Вы не можете прикреплять файлы к сообщениям
Вы не можете скачивать файлы