Выше радуги (1986) SATRip

 
Автор Сообщение

BOSS ®

Пол:

Стаж: 4 года 2 месяца

Сообщений: 12658

Откуда: ODESSA



Награды: 22 (Подробнее)

За внесенный вклад в развитие сайта (Количество: 1) Mega Seeder 5 (Количество: 1) Top Seeder 4 (Количество: 1)
Торрент-статистика

Создавать темы 05-Дек-2018 20:31

[Цитировать]

Информация о фильме
Название: Выше радуги
Год выхода: 1986
Жанр: Детский, приключения, музыкальный
Режиссёр: Георгий Юнгвальд-Хилькевич
В ролях: Дмитрий Марьянов, Екатерина Парфенова, Юрий Куклачев, Ольга Машная, Галина Польских, Михаил Боярский, Елена Аминова
О фильме: Алик Радуга хорошо учился, но успехов в спорте достичь не мог. Однажды волшебница наделила его даром прыгать выше всех, но если Алик когда-нибудь солжет — волшебство исчезнет. Чтобы защитить девочку, Алик сказал неправду, и волшебные чары развеялись. Однако упорными тренировками он добился подлинных побед...

Страна: СССР
Студия: Одесская киностудия
Продолжительность: 02:23:57
Перевод: Не требуется (оригинальный)
Файл
Формат: avi
Качество: SATRip (DVB)
Видео: XviD, 640х480, 25fps, 1306kbps
Аудио: MPEG Layer 3, 2ch, 48000Hz, 128kbps

MediaInfo

Общее
Полное имя : Vyshe.Radugi.1986.O.SATRip.1400.CurHaJI.avi
Формат : AVI
Формат/Информация : Audio Video Interleave
Размер файла : 1,45 Гбайт
Продолжительность : 2 ч. 23 м.
Общий поток : 1444 Кбит/сек
Название фильма : Vyshe.Radugi.1986.O.SATRip.1400.CurHaJI
Программа кодирования : VirtualDubMod 1.5.10.3 | www.virtualdub-fr.org || (build 2550/release)
Библиотека кодирования : VirtualDub build 35491/release
Видео
Идентификатор : 0
Формат : MPEG-4 Visual
Профиль формата : Advanced Simple@L5
Параметр BVOP формата : 1
Параметр QPel формата : Нет
Параметр GMC формата : Без точки перехода
Параметр матрицы формата : Выборочная
Идентификатор кодека : XVID
Идентификатор кодека/Подсказка : XviD
Продолжительность : 2 ч. 23 м.
Битрейт : 1306 Кбит/сек
Ширина : 640 пикселей
Высота : 480 пикселей
Соотношение сторон : 4:3
Частота кадров : 25,000 кадров/сек
Цветовое пространство : YUV
Субдискретизация насыщенности : 4:2:0
Битовая глубина : 8 бит
Тип развёртки : Прогрессивная
Метод сжатия : С потерями
Бит/(Пиксели*Кадры) : 0.170
Размер потока : 1,31 Гбайт (90%)
Библиотека кодирования : XviD 73
Аудио
Идентификатор : 1
Формат : MPEG Audio
Версия формата : Version 1
Профиль формата : Layer 3
Идентификатор кодека : 55
Идентификатор кодека/Подсказка : MP3
Продолжительность : 2 ч. 23 м.
Вид битрейта : Постоянный
Битрейт : 128 Кбит/сек
Каналы : 2 канала
Частота : 48,0 КГц
Метод сжатия : С потерями
Размер потока : 132 Мбайт (9%)
Выравнивание : Соединение по промежуткам
Продолжительность промежутка : 40 мс. (1,00 видеокадр)
Время предзагрузки промежутка : 504 мс.
Библиотека кодирования : LAME3.99r
Настройки программы : -m s -V 4 -q 2 -lowpass 17 -b 128

Скриншоты

Релиз от:
[Профиль] [ЛС]
Кто просматривает тему:

Показать сообщения:    

Текущее время: Сегодня 16:44

Часовой пояс: GMT



Вы не можете начинать темы
Вы не можете отвечать на сообщения
Вы не можете редактировать свои сообщения
Вы не можете удалять свои сообщения
Вы не можете голосовать в опросах
Вы не можете прикреплять файлы к сообщениям
Вы не можете скачивать файлы