Вычислитель (2014) BDRip 1080p

 
Автор Сообщение

sergej644 ®

Пол:

Стаж: 4 года 11 месяцев

Сообщений: 6041

Откуда: Soviet Union



Награды: Нет

Торрент-статистика

Создавать темы 05-Авг-2015 22:51

[Цитировать]

Информация о фильме
Название: Укажите принятое в России название
Оригинальное название: Вычислитель
Год выхода: 2014
Жанр: Фантастика
Режиссер: Дмитрий Грачев
В ролях: Евгений Миронов, Винни Джонс, Анна Чиповская, Иван Верховых, Владас Багдонас, Алексей Колубков, Никита Панфилов, Линда Нигматулина, Пётр Сковцов, Ирене Мускара
О фильме:
Десять заключенных, приговоренных к пожизненному изгнанию с планеты XT-59, отправляются в опасный путь через Саргассово Болото. Группа сразу делится на две части: Эрвин и Кристи идут на поиск Счастливых Островов, Юст ведет остальных к Гнилой Мели. Однако долгое время их маршруты практически совпадают. В первый же вечер Эрвин понимает, что его должны убить — в прошлой жизни он занимал слишком высокий пост, и теперь он опасен для тех, кто пришел к власти. Выбрав в попутчицы Кристи, он сразу старается уйти подальше от остальных членов группы, чтобы обезопасить себя. На пути к Счастливым островам герои преодолевают массу препятствий. Цена этому — свобода и счастье.

Страна: Россия
Студия: Art Pictures Studio, ВГТРК
Продолжительность: 01:23:12
Перевод: Оригинал
Файл
Кодек: MPEG-4 AVC
Качество: BDRip 1080p
Видео: 8625 Кбит/с, 1920x800
Звук: Русский, французский (АC3, 6 ch, 640 Кбит/с)
Семпл

Релиз

Рип от StarbirS
Aудио#1: Russian: 48 kHz, AC3, 2 (L,R) ch, ~640.00 kbps avg - Оригинал
Aудио#2: French: 48 kHz, AC3, 3/2 (L,C,R,l,r) + LFE ch, ~640.00 kbps avg - Дублированный

Инфо-файл

Формат : Matroska
Версия формата : Version 2
Размер файла : 5,76 Гбайт
Продолжительность : 1 ч. 23 м.
Общий поток : 9907 Кбит/сек
Название фильма : Titanium.2014.x264.BDRip.1080p.Rus.Fre
Дата кодирования : UTC 2015-07-27 05:45:31
Программа кодирования : mkvmerge v7.9.0 ('Birds') 64bit
Библиотека кодирования : libebml v1.3.1 + libmatroska v1.4.2
Видео
Идентификатор : 1
Формат : AVC
Формат/Информация : Advanced Video Codec
Профиль формата : High@L4.1
Параметр CABAC формата : Да
Параметр ReFrames формата : 5 кадров
Идентификатор кодека : V_MPEG4/ISO/AVC
Продолжительность : 1 ч. 23 м.
Битрейт : 8625 Кбит/сек
Ширина : 1920 пикселей
Высота : 800 пикселей
Соотношение сторон : 2,40:1
Режим частоты кадров : Постоянный
Частота кадров : 25,000 кадров/сек
Цветовое пространство : YUV
Субдискретизация насыщенности : 4:2:0
Битовая глубина : 8 бит
Тип развёртки : Прогрессивная
Бит/(Пиксели*Кадры) : 0.225
Размер потока : 4,90 Гбайт (85%)
Заголовок : Titanium.2014.x264.BDRip.1080p.Rus.Fre.by.StarbirS
Библиотека кодирования : x264 core 146 r2538 121396c
Настройки программы : cabac=1 / ref=5 / deblock=1:-3:-3 / analyse=0x3:0x113 / me=umh / subme=11 / psy=1 / psy_rd=1.00:0.00 / mixed_ref=1 / me_range=32 / chroma_me=1 / trellis=2 / 8x8dct=1 / cqm=0 / deadzone=21,11 / fast_pskip=0 / chroma_qp_offset=-2 / threads=12 / lookahead_threads=2 / sliced_threads=0 / nr=0 / decimate=0 / interlaced=0 / bluray_compat=0 / constrained_intra=0 / bframes=7 / b_pyramid=2 / b_adapt=2 / b_bias=0 / direct=3 / weightb=1 / open_gop=1 / weightp=2 / keyint=240 / keyint_min=23 / scenecut=40 / intra_refresh=0 / rc_lookahead=40 / rc=2pass / mbtree=0 / bitrate=8625 / ratetol=1.0 / qcomp=0.70 / qpmin=0 / qpmax=69 / qpstep=4 / cplxblur=20.0 / qblur=0.5 / vbv_maxrate=50000 / vbv_bufsize=62500 / nal_hrd=none / filler=0 / ip_ratio=1.40 / pb_ratio=1.30 / aq=1:0.80
Язык : English
Default : Да
Forced : Нет
Аудио #1
Идентификатор : 2
Формат : AC-3
Формат/Информация : Audio Coding 3
Расширение режима : CM (complete main)
Параметр Endianness формата : Big
Идентификатор кодека : A_AC3
Продолжительность : 1 ч. 23 м.
Вид битрейта : Постоянный
Битрейт : 640 Кбит/сек
Каналы : 6 каналов
Расположение каналов : Front: L C R, Side: L R, LFE
Частота : 48,0 КГц
Метод сжатия : С потерями
Размер потока : 381 Мбайт (6%)
Язык : Russian
Default : Да
Forced : Нет
Аудио #2
Идентификатор : 3
Формат : AC-3
Формат/Информация : Audio Coding 3
Расширение режима : CM (complete main)
Параметр Endianness формата : Big
Идентификатор кодека : A_AC3
Продолжительность : 1 ч. 23 м.
Вид битрейта : Постоянный
Битрейт : 640 Кбит/сек
Каналы : 6 каналов
Расположение каналов : Front: L C R, Side: L R, LFE
Частота : 48,0 КГц
Метод сжатия : С потерями
Размер потока : 381 Мбайт (6%)
Язык : French
Default : Нет
Forced : Нет
Меню
00:00:00.000 : en:00:00:00.000
00:07:05.480 : en:00:07:05.480
00:12:38.760 : en:00:12:38.760
00:21:02.720 : en:00:21:02.720
00:28:53.160 : en:00:28:53.160
00:35:10.960 : en:00:35:10.960
00:44:00.680 : en:00:44:00.680
00:50:02.160 : en:00:50:02.160
00:56:15.480 : en:00:56:15.480
01:01:46.040 : en:01:01:46.040
01:10:02.120 : en:01:10:02.120
01:15:47.080 : en:01:15:47.080

Скриншоты


[Профиль] [ЛС]
Кто просматривает тему:

Форум Тема Автор Размер
Apple, iOS, iPad, iPhone [iPad] Вычислитель (Дмитрий Грачев) [2014, Россия, Фантастика, WEB-DLRip, SD (576p)] Original sergej644 1.42 GB
Разная литература Артур Бенджамин, Майкл Шермер - Магия чисел. Ментальные вычисления в уме и другие математические фокусы [2014, PDF] достали все 4 MB
Фильмы (HD Rips | 720p, 1080p) Вычислитель (Дмитрий Грачев) [2014, Россия, фантастика, BDRip 720p] + Original Rus TorrentFilm 3.2 GB
Фильмы (HD Rips | 720p, 1080p) Вычислитель (Дмитрий Грачев) [2014, Россия, фантастика, Blu-ray disc 1080i] [FRE Transfer] Sub Fre + Original Rus TorrentFilm 15.7 GB
Фильмы (HD Rips | 720p, 1080p) Вычислитель (Дмитрий Грачев) [2014, Россия, фантастика, WEB-DL 1080p] TorrentFilm 2.57 GB
Фильмы 2014 года Вычислитель (Дмитрий Грачев) [2014, Фантастика] BDRip | Лицензия BOSS 1.37 GB
Фильмы (DVD 5/9) Вычислитель / The Calculator / Titanium - Strafplanet XT-59 (Дмитрий Грачев / Dmitriy Grachev) [2014, Россия, фантастика, DVD9] [16:9 PAL R2] + Sub Ger Eng + Original Rus + DUB Ger TorrentFilm 6.7 GB
Разная литература Кьяртан Поскитт - Математика для взрослых. Лайфхаки для повседневных вычислений (2016) PDF достали все 8 MB
Показать сообщения:    

Текущее время: Сегодня 16:55

Часовой пояс: GMT



Вы не можете начинать темы
Вы не можете отвечать на сообщения
Вы не можете редактировать свои сообщения
Вы не можете удалять свои сообщения
Вы не можете голосовать в опросах
Вы не можете прикреплять файлы к сообщениям
Вы не можете скачивать файлы