Выход Дракона / Enter the Dragon / Long zheng hu dou (1973) BDRip 1080p

 
Автор Сообщение

sergej644 ®

Пол:

Стаж: 4 года 11 месяцев

Сообщений: 6046

Откуда: Soviet Union



Награды: Нет

Торрент-статистика

Создавать темы 31-Окт-2014 18:44

[Цитировать]

--Выход Дракона / Enter the Dragon / Long zheng hu dou (1973) Информация о фильме
Название: Выход Дракона
Оригинальное название: Enter the Dragon / Long zheng hu dou
Год выхода: 1973
Страна: США, Гонконг
Выпущено: Concord Productions Inc., Sequoia Productions, Warner Bros. Pictures Co.
Жанр: Боевик, триллер, драма, криминал
Продолжительность: 01:42:33
Перевод 1: Профессиональный (Дублированный)
Перевод 2: Профессиональный (Многоголосый закадровый "Superbit")
Перевод 3: Авторский (Одноголосый закадровый "В.Королёв")
Режиссер: Роберт Клауз
В ролях: Брюс Ли, Джон Сэксон, Кьен Ших, Ана Капри, Джим Келли, Роберт Уолл, Боло Йенг, Питер Арчер, Рой Чиао, Пол М. Хеллер, Тони Лиу, Кий Люк, Стив Сэндерс, Йен Бьяо, Саммо Хунг, Джеки Чан-О фильме: События переносят нас на остров, превращенный в крепость главарем боевиков, открывшим там школу боевых искусств, которая является лишь ширмой, маскирующей контрабандный бизнес. В эту цитадель проникает герой Брюса Ли и становится участником жестокого турнира… Этот фильм — последний полнометражный и до конца отснятый фильм с великим мастером Брюсом Ли, «Маленьким Драконом», как его любовно называли китайские и заокеанские поклонники, которым он подарил мечту и легенду. Этот фильм стал последним и самым совершенным фильмом непобедимого китайца — его победило что-то другое, что — до сих пор неизвестно, но известно, что среди людей никто не мог противостоять «Дракону». И этот фильм расскажет, почему. Здесь Брюс Ли предстает во всей своей красе — поставленные им самим молниеносные схватки, потрясающие бои, которые выглядят правдоподобнее, чем во всех остальных фильмах Брюса. За движениями Ли бывает просто невозможно уследить, он двигается, как ветер. Мастера боевых искусств, занятые в этом фильме не могут не то что отлупить его, а даже среагировать на его сокрушающие удары…
-Файл
Кодек: x264
Формат: MKV
Качество: BDRip 1080p (Источник: Operation Dragon 1973 Blu-ray FRA 1080p VC-1 DD5.1-WiHD)
Видео: AVC (High@L4.1) 1912x808 (2.35:1), 23.976 fps, 9552 kbps, 0.258 Bits/Pixel
Аудио 1: DD (AC-3) 5.1 ch, 384 kbps
Аудио 2: DD (AC-3) 5.1 ch, 448 kbps
Аудио 3: DD (AC-3) 5.1 ch, 448 kbps
Субтитры: Русские, Английские
Размер: (1/3 BD)--

MI

General
Unique ID : 197112037253658453075054030282025921849 (0x944A65C234C068FCA6BF0F8AACB0ED39)
Format : Matroska
Format version : Version 2
File size : 7.76 GiB
Duration : 1h 42mn
Overall bit rate : 10.8 Mbps
Movie name : Выход дракона (1973) BDRip (1080p)
Encoded date : UTC 2013-01-28 09:53:00
Writing application : mkvmerge v5.8.0 ('No Sleep / Pillow') built on Sep 2 2012 15:37:04
Writing library : libebml v1.2.3 + libmatroska v1.3.0
Video
ID : 1
Format : AVC
Format/Info : Advanced Video Codec
Format profile : High@L4.1
Format settings, CABAC : Yes
Format settings, ReFrames : 5 frames
Codec ID : V_MPEG4/ISO/AVC
Duration : 1h 42mn
Bit rate : 9 552 Kbps
Width : 1 912 pixels
Height : 808 pixels
Display aspect ratio : 2.35:1
Frame rate mode : Constant
Frame rate : 23.976 fps
Color space : YUV
Chroma subsampling : 4:2:0
Bit depth : 8 bits
Scan type : Progressive
Bits/(Pixel*Frame) : 0.258
Stream size : 6.69 GiB (86%)
Title : Release by Alex260680
Writing library : x264 core 129 r2245 bc13772
Encoding settings : cabac=1 / ref=5 / deblock=1:-1:-1 / analyse=0x3:0x113 / me=umh / subme=11 / psy=1 / psy_rd=1.00:0.10 / mixed_ref=1 / me_range=32 / chroma_me=1 / trellis=2 / 8x8dct=1 / cqm=0 / deadzone=21,11 / fast_pskip=0 / chroma_qp_offset=-3 / threads=12 / lookahead_threads=2 / sliced_threads=0 / nr=0 / decimate=0 / interlaced=0 / bluray_compat=0 / constrained_intra=0 / bframes=5 / b_pyramid=2 / b_adapt=2 / b_bias=0 / direct=3 / weightb=1 / open_gop=0 / weightp=2 / keyint=240 / keyint_min=23 / scenecut=40 / intra_refresh=0 / rc=2pass / mbtree=0 / bitrate=9552 / ratetol=1.0 / qcomp=0.60 / qpmin=0 / qpmax=69 / qpstep=4 / cplxblur=20.0 / qblur=0.5 / ip_ratio=1.40 / pb_ratio=1.30 / aq=1:0.90
Language : English
Default : Yes
Forced : No
Audio #1
ID : 2
Format : AC-3
Format/Info : Audio Coding 3
Mode extension : CM (complete main)
Format settings, Endianness : Big
Codec ID : A_AC3
Duration : 1h 42mn
Bit rate mode : Constant
Bit rate : 384 Kbps
Channel(s) : 6 channels
Channel positions : Front: L C R, Side: L R, LFE
Sampling rate : 48.0 KHz
Bit depth : 16 bits
Compression mode : Lossy
Stream size : 282 MiB (4%)
Title : DUB
Language : Russian
Default : Yes
Forced : No
Audio #2
ID : 3
Format : AC-3
Format/Info : Audio Coding 3
Mode extension : CM (complete main)
Format settings, Endianness : Big
Codec ID : A_AC3
Duration : 1h 42mn
Bit rate mode : Constant
Bit rate : 448 Kbps
Channel(s) : 6 channels
Channel positions : Front: L C R, Side: L R, LFE
Sampling rate : 48.0 KHz
Bit depth : 16 bits
Compression mode : Lossy
Stream size : 329 MiB (4%)
Title : MVO (Superbit)
Language : Russian
Default : No
Forced : No
Audio #3
ID : 4
Format : AC-3
Format/Info : Audio Coding 3
Mode extension : CM (complete main)
Format settings, Endianness : Big
Codec ID : A_AC3
Duration : 1h 42mn
Bit rate mode : Constant
Bit rate : 448 Kbps
Channel(s) : 6 channels
Channel positions : Front: L C R, Side: L R, LFE
Sampling rate : 48.0 KHz
Bit depth : 16 bits
Compression mode : Lossy
Stream size : 329 MiB (4%)
Title : AVO (Королёв)
Language : Russian
Default : No
Forced : No
Text #1
ID : 5
Format : UTF-8
Codec ID : S_TEXT/UTF8
Codec ID/Info : UTF-8 Plain Text
Language : Russian
Default : No
Forced : No
Text #2
ID : 6
Format : UTF-8
Codec ID : S_TEXT/UTF8
Codec ID/Info : UTF-8 Plain Text
Language : English
Default : No
Forced : No
Menu
00:00:00.000 : en:Chapter1
00:02:29.316 : en:Chapter2
00:05:28.495 : en:Chapter3
00:08:26.338 : en:Chapter4
00:10:40.639 : en:Chapter5
00:14:39.211 : en:Chapter6
00:20:16.213 : en:Chapter7
00:25:08.338 : en:Chapter8
00:27:40.991 : en:Chapter9
00:31:34.057 : en:Chapter10
00:34:03.875 : en:Chapter11
00:39:00.170 : en:Chapter12
00:41:53.677 : en:Chapter13
00:45:21.052 : en:Chapter14
00:46:35.458 : en:Chapter15
00:50:48.210 : en:Chapter16
00:55:11.474 : en:Chapter17
00:57:56.306 : en:Chapter18
01:00:36.132 : en:Chapter19
01:05:27.922 : en:Chapter20
01:09:00.301 : en:Chapter21
01:11:25.279 : en:Chapter22
01:16:01.055 : en:Chapter23
01:20:09.970 : en:Chapter24
01:25:09.104 : en:Chapter25
01:28:51.658 : en:Chapter26
01:31:37.158 : en:Chapter27
01:35:14.542 : en:Chapter28
01:40:24.018 : en:Chapter29

x264

x264 [info]: frame I:1009 Avg QP:18.88 size:167360
x264 [info]: frame P:33137 Avg QP:21.27 size: 83189
x264 [info]: frame B:113381 Avg QP:22.99 size: 38993

Интересно

Mожет, кто-то даже возмутится, если отнести эту картину к разряду «Классика» (а язвительная американская критикесса Полин Кейл вообще выдала вот такую саркастичную фразу: «Милый образчик для получающих удовольствие от мусорного искусства»). Хотя в своём жанре данный фильм, имевший, к тому же, невероятный успех во всём мире (бюджет в размере $850 тыс. был превзойдён почти в 106 раз!), действительно должен быть признан классическим. И это лучшая из лент с участием мастера кунфу Брюса Ли, законченная незадолго до его загадочной преждевременной смерти (в возрасте неполных тридцати трёх лет), о которой до сих пор ходят легенды и строятся всевозможные домыслы.
А лучшая, наверно, потому, что в картине «В бой вступает Дракон» сильнее всего ощущается миф, сложившийся вокруг личности актёра. Причём это трудно передать словами. Мифический ореол незримо присутствует в фильме, придавая поведению Брюса Ли на экране оттенок подлинного величия. Боевые поединки в его исполнении похожи на изящный танец, на балет высочайшего класса. И вовсе забываешь о неприхотливом сюжете, а также о причинах, которые побудили героя по имени Ли в одиночку атаковать принадлежащую криминальному барону неприступную крепость на острове и вступать в борьбу с превосходящими во много раз силами противника…
-Скриншоты
-
[Профиль] [ЛС]
Показать сообщения:    

Текущее время: Сегодня 14:02

Часовой пояс: GMT



Вы не можете начинать темы
Вы не можете отвечать на сообщения
Вы не можете редактировать свои сообщения
Вы не можете удалять свои сообщения
Вы не можете голосовать в опросах
Вы не можете прикреплять файлы к сообщениям
Вы не можете скачивать файлы