Выхода нет / No Escape (2015) BDRemux 1080p | D

 
Автор Сообщение

BOSS ®

Пол:

Стаж: 2 года 1 месяц

Сообщений: 3712

Откуда: ODESSA



Награды: 20 (Подробнее)

Top Keeper 4 (Количество: 1) Mega Releaser 2 (Количество: 1) Mega Seeder 4 (Количество: 1)
Торрент-статистика

Создавать темы 02-Дек-2015 17:19

[Цитировать]

Информация о фильме
Название: Выхода нет
Оригинальное название: No Escape
Год выпуска: 2015
Жанр: Боевик, триллер
Выпущено: США, Bold Films, Brothers Dowdle Productions, Living Films
Режиссер: Джон Эрик Даудл
В ролях: Оуэн Уилсон, Лэйк Белл, Пирс Броснан, Стерлинг Джеринс, Чатчаваи Камонсакпитак, Сахайак Бунсанакит, Танапол Чуксрида, Нопханд Буньяй, Канарпат Финтиянг, Джон Голдни, Дуанг Мэйдорк, Супхорнапхат Энни Дженселиус, Бартелеми Сон, Микайла Френд, Стэйси Чбоски, Байрон Гибсон, Мэтт Олиник, Стефан Кинг, Тханават Каеваркорн, Спенсер Гаррет
О фильме: Семья техасского инженера Джека Двайера прилетает в неназванную азиатскую страну. Главу семейства ожидает работа в солидной инжиниринговой корпорации, новая карьера и заманчивые перспективы. Но переехавшая в поисках лучшей жизни на другой край света американская семья оказывается в огне охватившего страну военного переворота. Как далеко сможет зайти загнанный в угол человек, чтобы спасти жену и детей от вооруженных радикалов, объявивших охоту на непрошенных гостей-иностранцев?

Файл
Качество: Blu-Ray Remux (1080p)
Видео: MPEG-4 AVC, 21917 Кбит/с, 1920x1080
Аудио: Русский (AC3, 6 ch, 448 Кбит/с), английский (DTS-HD MA, 6 ch, 3683 Кбит/с), (AC3, 2 ch, 192 Кбит/с)
Размер: 18.9 ГБ
Продолжительность: 01:43:07
Перевод: Дублированный [c IPTV]
Субтитры: Русские, английские

MI

Общее
Уникальный идентификатор : 174687937770092100346813569016248794647 (0x836BAC4B8731F6818D80C882D56DFE17)
Полное имя : C:No.Escape.2015.1080p.Blu-ray.REMUX.AVC.DTS-HD.MA.5.1.mkv
Формат : Matroska
Версия формата : Version 2
Размер файла : 18,9 Гбайт
Продолжительность : 1 ч. 43 м.
Режим общего битрейта : Переменный
Общий поток : 26,2 Мбит/сек
Дата кодирования : UTC 2015-12-02 14:49:08
Программа кодирования : mkvmerge v7.9.0 ('Birds') 64bit
Библиотека кодирования : libebml v1.3.1 + libmatroska v1.4.2
Видео
Идентификатор : 1
Формат : AVC
Формат/Информация : Advanced Video Codec
Профиль формата : High@L4.1
Параметр CABAC формата : Да
Параметр ReFrames формата : 4 кадра
Параметр GOP формата : M=3, N=24
Идентификатор кодека : V_MPEG4/ISO/AVC
Продолжительность : 1 ч. 43 м.
Вид битрейта : Переменный
Максимальный битрейт : 35,0 Мбит/сек
Ширина : 1920 пикселей
Высота : 1080 пикселей
Соотношение сторон : 16:9
Режим частоты кадров : Постоянный
Частота кадров : 23,976 кадра/сек
Стандарт вещания : NTSC
Цветовое пространство : YUV
Субдискретизация насыщенности : 4:2:0
Битовая глубина : 8 бит
Тип развёртки : Прогрессивная
Default : Да
Forced : Нет
Цветовой диапазон : Limited
Основные цвета : BT.709
Характеристики трансфера : BT.709
Коэффициенты матрицы : BT.709
Аудио #1
Идентификатор : 2
Формат : AC-3
Формат/Информация : Audio Coding 3
Расширение режима : CM (complete main)
Параметр Endianness формата : Big
Идентификатор кодека : A_AC3
Продолжительность : 1 ч. 43 м.
Вид битрейта : Постоянный
Битрейт : 448 Кбит/сек
Каналы : 6 каналов
Расположение каналов : Front: L C R, Side: L R, LFE
Частота : 48,0 КГц
Метод сжатия : С потерями
Размер потока : 331 Мбайт (2%)
Заголовок : IPTV
Язык : Russian
Default : Да
Forced : Нет
Аудио #2
Идентификатор : 3
Формат : DTS
Формат/Информация : Digital Theater Systems
Профиль формата : MA / Core
Режим : 16
Параметр Endianness формата : Big
Идентификатор кодека : A_DTS
Продолжительность : 1 ч. 43 м.
Вид битрейта : Переменный
Битрейт : Неизвестно / 1509 Кбит/сек
Каналы : 6 каналов
Расположение каналов : Front: L C R, Side: L R, LFE
Частота : 48,0 КГц
Битовая глубина : 24 бит
Метод сжатия : Без потерь / Lossy
Язык : English
Default : Нет
Forced : Нет
Аудио #3
Идентификатор : 4
Формат : AC-3
Формат/Информация : Audio Coding 3
Расширение режима : CM (complete main)
Параметр Endianness формата : Big
Идентификатор кодека : A_AC3
Продолжительность : 1 ч. 43 м.
Вид битрейта : Постоянный
Битрейт : 192 Кбит/сек
Каналы : 2 канала
Расположение каналов : Front: L R
Частота : 48,0 КГц
Метод сжатия : С потерями
Размер потока : 142 Мбайт (1%)
Язык : English
Default : Нет
Forced : Нет
Текст #1
Идентификатор : 5
Формат : UTF-8
Идентификатор кодека : S_TEXT/UTF8
Идентификатор кодека/Информация : UTF-8 Plain Text
Язык : Russian
Default : Нет
Forced : Нет
Текст #2
Идентификатор : 6
Формат : UTF-8
Идентификатор кодека : S_TEXT/UTF8
Идентификатор кодека/Информация : UTF-8 Plain Text
Язык : English
Default : Нет
Forced : Нет
Меню
00:00:00.000 : en:Chapter 1
00:04:10.041 : en:Chapter 2
00:10:57.866 : en:Chapter 3
00:18:40.703 : en:Chapter 4
00:25:31.447 : en:Chapter 5
00:34:40.787 : en:Chapter 6
00:40:04.360 : en:Chapter 7
00:46:11.310 : en:Chapter 8
00:52:06.498 : en:Chapter 9
00:57:36.828 : en:Chapter 10
01:03:55.790 : en:Chapter 11
01:11:22.487 : en:Chapter 12
01:18:58.651 : en:Chapter 13
01:25:01.471 : en:Chapter 14
01:31:11.383 : en:Chapter 15
01:37:38.978 : en:Chapter 16

Скриншоты


[Профиль] [ЛС]
Показать сообщения:    

Текущее время: Сегодня 02:46

Часовой пояс: GMT



Вы не можете начинать темы
Вы не можете отвечать на сообщения
Вы не можете редактировать свои сообщения
Вы не можете удалять свои сообщения
Вы не можете голосовать в опросах
Вы не можете прикреплять файлы к сообщениям
Вы не можете скачивать файлы