Высшая сила / Higher Power (2018) HDRip 1080p | GreenРай Studio

 
Author Message

BOSS ®

Gender:

Longevity: 4 years 6 months

Posts: 14056

Location: ODESSA



: 22 ()

Mega Seeder 1 (1) Mega Seeder 2 (1) Mega Seeder 5 (1)
Торрент-статистика

Post 09-Aug-2018 17:36

[Quote]

Информация о фильме
Год выхода: 2018
Наименование: Высшая сила
Оригинальное наименование: Higher Power
Страна: США
Жанр: фантастика, боевик, триллер
Режиссер постановщик: Мэттью Санторо
В главных ролях: Джордан Хинсон, Остин Стоуэлл, Рон Элдард, Колм Фиор, Джейд Тейлор, Уинстон Джеймс Френсис, Омар Дум, Линк Хэнд, Мариэль Джаффе, Ричард Портноу
О фильме: Вселенная находится на грани разрушения. Джозеф Стедман решает принести себя в жертву, участвуя в эксперименте безумного учёного, который сможет спасти мир или ускорить его гибель.

Файл
Качество: HDRip 1080p
Видео данные: MKV, 1920x800 (2.40:1), 23.976 fps, 10000 Кбит/с
Аудио данные: AC3, 6 ch, 640 Кбит/с
Перевод: Любительский многоголосый (GreenРай Studio)
Продолжительность: 01:33:41

Медиаинфо

General
Unique ID : 214816449568174220896914879044664659917 (0xA19C24ADCDACEDECB24D583A732F8FCD)
Complete name : D:ГРИНРАЙHigher.Power.2018.P.BDRip.1080p.mkv
Format : Matroska
Format version : Version 4 / Version 2
File size : 6.71 GiB
Duration : 1 h 33 min
Overall bit rate mode : Constant
Overall bit rate : 10.2 Mb/s
Encoded date : UTC 2018-08-01 10:22:31
Writing application : mkvmerge v8.3.0 ('Over the Horizon') 64bit
Writing library : libebml v1.3.1 + libmatroska v1.4.2
Video
ID : 1
Format : AVC
Format/Info : Advanced Video Codec
Format profile : Main@L4
Format settings : CABAC / 3 Ref Frames
Format settings, CABAC : Yes
Format settings, RefFrames : 3 frames
Format settings, GOP : M=1, N=15
Codec ID : V_MPEG4/ISO/AVC
Duration : 1 h 33 min
Bit rate mode : Constant
Bit rate : 10 000 kb/s
Width : 1 920 pixels
Height : 800 pixels
Display aspect ratio : 2.40:1
Frame rate mode : Constant
Frame rate : 23.976 (24000/1001) FPS
Standard : NTSC
Color space : YUV
Chroma subsampling : 4:2:0
Bit depth : 8 bits
Scan type : Progressive
Bits/(Pixel*Frame) : 0.272
Stream size : 6.29 GiB (94%)
Language : English
Default : Yes
Forced : No
Color range : Limited
Audio
ID : 2
Format : AC-3
Format/Info : Audio Coding 3
Codec ID : A_AC3
Duration : 1 h 33 min
Bit rate mode : Constant
Bit rate : 640 kb/s
Channel(s) : 2 channels
Channel positions : Front: L R
Sampling rate : 48.0 kHz
Frame rate : 31.250 FPS (1536 SPF)
Bit depth : 16 bits
Compression mode : Lossy
Stream size : 429 MiB (6%)
Service kind : Complete Main
Default : Yes
Forced : No
Внимание, имеется видео и аудио реклама от спонсора показа

Скриншоты

Релиз от:
[Profile] [PM]
Display posts from previous:    

The time now is: Today 10:22

All times are GMT



You cannot post new topics in this forum
You cannot reply to topics in this forum
You cannot edit your posts in this forum
You cannot delete your posts in this forum
You cannot vote in polls in this forum
You cannot attach files in this forum
You cannot download files in this forum