Выступление Президента РФ В.В. Путина на заседании Валдайского клуба (24.10.2014) SATRip

 
Автор Сообщение

sergej644 ®

Пол:

Стаж: 4 года 11 месяцев

Сообщений: 6041

Откуда: Soviet Union



Награды: Нет

Торрент-статистика

Создавать темы 24-Окт-2014 19:05

[Цитировать]

-Выступление Президента РФ В.В. Путина на заседании Валдайского клуба (24.10.2014) SATRip -Язык: русский
Режиссер / Телекомпания: Russia Today
Год выпуска: 2014
Жанр: Документальный
Описание:
Выступление, а также ответы на вопросы журналистов Президента России В.В. Путина на итоговом заседании XI конференции Валдайского международного дискуссионного клуба в Сочи 24 октября 2014 года.
Программные заявления В.В. Путина о ситуации в мире и действиях России в сложившейся ситуации. Ответы на вопросы зарубежных и российских журналистов по актуальным вопросам современности.
Участники: В.В. Путин, зарубежные и российские журналисты, участники дискуссионного клуба "Валдай"
Продолжительность: 02:25:15
Качество видео: SATRip
Видеокодек: Xvid
Битрейт видео: ~1138
Размер кадра: 720х400
Аудиокодек: MP3
Битрейт аудио: 128 kb/s, 2 channels

MediaInfo

Format : AVI
Format/Info : Audio Video Interleave
Format profile : OpenDML
File size : 1.15 GiB
Duration : 2h 25mn
Overall bit rate : 1 138 Kbps
Writing application : MEncoder SVN-r33883(20110719-gcc4.5.2)
Writing library : MPlayer
Video
ID : 0
Format : MPEG-4 Visual
Format profile : Advanced Simple@L5
Format settings, BVOP : 2
Format settings, QPel : No
Format settings, GMC : No warppoints
Format settings, Matrix : Default (H.263)
Codec ID : XVID
Codec ID/Hint : XviD
Duration : 2h 25mn
Bit rate : 994 Kbps
Width : 720 pixels
Height : 400 pixels
Display aspect ratio : 16:9
Original display aspect ratio : 16:9
Frame rate : 25.000 fps
Color space : YUV
Chroma subsampling : 4:2:0
Bit depth : 8 bits
Scan type : Progressive
Compression mode : Lossy
Bits/(Pixel*Frame) : 0.138
Stream size : 1.01 GiB (87%)
Writing library : XviD 1.2.1 (UTC 2008-12-04)
Audio
ID : 1
Format : MPEG Audio
Format version : Version 1
Format profile : Layer 3
Mode : Joint stereo
Mode extension : MS Stereo
Codec ID : 55
Codec ID/Hint : MP3
Duration : 2h 25mn
Bit rate mode : Constant
Bit rate : 128 Kbps
Channel count : 2 channels
Sampling rate : 44.1 KHz
Compression mode : Lossy
Delay relative to video : 40ms
Stream size : 133 MiB (11%)
Alignment : Aligned on interleaves
Interleave, duration : 26 ms (0.65 video frame)
Interleave, preload duration : 522 ms
Скриншоты:

Время раздачи: 24/7 (круглосуточно) до первых 5-ти сидов - потом по возможности-
[Профиль] [ЛС]
Кто просматривает тему:

Показать сообщения:    

Текущее время: Сегодня 08:32

Часовой пояс: GMT



Вы не можете начинать темы
Вы не можете отвечать на сообщения
Вы не можете редактировать свои сообщения
Вы не можете удалять свои сообщения
Вы не можете голосовать в опросах
Вы не можете прикреплять файлы к сообщениям
Вы не можете скачивать файлы