Выстрел в спину (Владимир Чеботарёв) [1979, детектив, DVB]

 
Автор Сообщение

reversefile ®

Пол:

Стаж: 4 года 5 месяцев

Сообщений: 842

Откуда: ReverseFile.org



Награды: Нет

Торрент-статистика

Создавать темы 25-Июл-2014 01:16

[Цитировать]

Выстрел в спину
21.07.14 заменил запись "Звезды" на запись "Доверия", битрейт видео 3186 против 2126. Преимущества на сравнении. На видео местами баннер с названием фильма (смотри 1-й скриншот).
Жанр: детектив
Год выпуска: 1979
Продолжительность: 01:28:08
Режиссёр: Владимир Чеботарёв
В ролях: Лев Прыгунов, Михаил Волков, Игорь Охлупин, Александр Збруев, Лариса Удовиченко, Владимир Самойлов, Нелли Пшенная, Юрий Саранцев, Виктор Чекмарёв, Владимир Ферапонтов, Любовь Полищук, Марина Дюжева, Всеволод Ларионов, Владимир Кенигсон, Лев Золотухин, Софья Пилявская, Елена Максимова, Юрий Мартынов, Николай Сморчков, Геннадий Юхтин, Владимир Тыкке, Андрей Ширнин, Владимир Гуляев, Людмила Карауш, Александр Лебедев, Валентин Манохин, Ирина Дитц, Валентин Брылеев, Борис Аракелов
Описание: По одноименной повести Николая Леонова.
Известный писатель, получивший накануне хороший гонорар за только что опубликованную книгу, убит. Зависть и деньги. Разве это не мотив для убийства? Милиция завела уголовное дело, начались поиски преступника. Оказалось, что свидетелей множество. Но оружие, из которого был убит писатель, до сих пор не найдено...

Доп. информация: Запись потока *.ts со спутника ABS-2, 75° в.д., ремукс в *.mpg программой VideoReDo.
Качество видео: DVB
Формат видео: MPEG-PS
Видео: MPEG Video, 720(768)x576 (4:3), 25,000 кадров/сек, 3186 Кбит/сек
Аудио: MPEG Audio, 48,0 КГц, 192 Кбит/сек, 2 канала

Сравнение

Со старым файлом
http://screenshotcomparison.com/comparison/84603

MediaInfo

Общее
Полное имя : D:\Torrent\ВЫСТРЕЛ В СПИНУ (Moskva Doverie).mpg
Формат : MPEG-PS
Размер файла : 2,12 Гбайт
Продолжительность : 1 ч. 28 м.
Режим общего битрейта : Переменный
Общий поток : 3447 Кбит/сек
Видео
Идентификатор : 224 (0xE0)
Формат : MPEG Video
Версия формата : Version 2
Профиль формата : Main@Main
Параметр BVOP формата : Да
Параметр матрицы формата : Выборочная
Параметр GOP формата : M=3, N=12
Продолжительность : 1 ч. 28 м.
Вид битрейта : Переменный
Битрейт : 3186 Кбит/сек
Максимальный битрейт : 15,0 Мбит/сек
Ширина : 720 пикселей
Высота : 576 пикселей
Соотношение сторон : 4:3
Частота кадров : 25,000 кадров/сек
Стандарт вещания : PAL
Цветовое пространство : YUV
Субдискретизация насыщенности : 4:2:0
Битовая глубина : 8 бит
Тип развёртки : Чересстрочная
Порядок развёртки : Верхнее поле первое
Метод сжатия : С потерями
Бит/(Пиксели*Кадры) : 0.307
Временной код первого кадра : 00:00:00:00
Оригинал временного кода : Group of pictures header
Размер потока : 1,96 Гбайт (92%)
Аудио
Идентификатор : 192 (0xC0)
Формат : MPEG Audio
Версия формата : Version 1
Профиль формата : Layer 2
Продолжительность : 1 ч. 28 м.
Вид битрейта : Постоянный
Битрейт : 192 Кбит/сек
Каналы : 2 канала
Частота : 48,0 КГц
Метод сжатия : С потерями
Задержка видео : 19 мс.
Размер потока : 121 Мбайт (6%)
[Профиль] [ЛС]

Создавать темы 06-Авг-2015 22:06 (спустя 1 год)

Топик был перенесен из форума Кино СССР в форум Кино СССР
sergej644
 
Показать сообщения:    

Текущее время: Сегодня 04:29

Часовой пояс: GMT



Вы не можете начинать темы
Вы не можете отвечать на сообщения
Вы не можете редактировать свои сообщения
Вы не можете удалять свои сообщения
Вы не можете голосовать в опросах
Вы не можете прикреплять файлы к сообщениям
Вы не можете скачивать файлы