Выстрел в пустоту / Shot Caller (2017) BDRip 720p | L

 
Автор Сообщение

BOSS ®

Пол:

Стаж: 3 года

Сообщений: 7616

Откуда: ODESSA



Награды: 22 (Подробнее)

Top Keeper 1 (Количество: 1) За внесенный вклад в развитие сайта (Количество: 1) Top Seeder 2 (Количество: 1)
Торрент-статистика

Создавать темы 07-Авг-2017 16:40

[Цитировать]

Информация о фильме
Название: Выстрел в пустоту
Оригинальное название: Shot Caller
Год выхода: 2017
Жанр: Триллер, Драма, Криминал
Режиссер: Рик Роман Во
В ролях: Николай Костер-Вальдау, Джон Бернтал, Лэйк Белл, Омари Хардвик, Джеффри Донован, Майкл Лэндис, Джесси Шрэм, Эмори Коэн, Бенджамин Брэтт, Холт МакКэллани
О фильме:
Роковая случайность, смертельная трагедия, и вся его жизнь летит под откос… Оказавшись за решеткой, он должен научиться жить по новым законам. Ты должен стать борцом, авторитетом или окажешься жертвой. Какую цену придется заплатить, чтобы выжить в этом аду, из которого нет дороги назад?..

Страна: США
Студия: Bold Films, DirecTV, Participant Media
Продолжительность: 02:00:41
Перевод: Многоголосый закадровый ("Paradox" & Omskbird records) (присутствует ненормативная лексика)
Файл
Кодек: MPEG-4 AVC
Качество: BDRip 720p | L
Видео: AVC/H.264, 1280x536, ~5820 Kbps
Звук:
Аудио 1: AC3, 6 ch, 640 Kbps - Русский
Аудио 2: AC3, 6 ch, 640 Kbps - Английский
Субтитры: Английские (полные, SDH)
Семпл

Mediainfo

Общее
Уникальный идентификатор : 250273245090991507209160705647356461484 (0xBC48DFAACD2061A5BDE6BE3FEE98C1AC)
Полное имя : Shot Caller.2017.BDRip.720p.mkv
Формат : Matroska
Версия формата : Version 2
Размер файла : 5,98 Гбайт
Продолжительность : 2 ч. 0 м.
Общий поток : 7099 Кбит/сек
Название фильма : ShotCaller.2017.BDRip.720p
Дата кодирования : UTC 2017-08-07 13:42:22
Программа кодирования : mkvmerge v4.0.0 ('The Stars were mine') сборка от Jun 6 2010 16:18:42
Библиотека кодирования : libebml v1.0.0 + libmatroska v1.0.0
Видео
Идентификатор : 1
Формат : AVC
Формат/Информация : Advanced Video Codec
Профиль формата : High@L4.1
Параметр CABAC формата : Да
Параметр RefFrames формата : 12 кадров
Идентификатор кодека : V_MPEG4/ISO/AVC
Продолжительность : 2 ч. 0 м.
Битрейт : 5820 Кбит/сек
Ширина : 1280 пикселей
Высота : 536 пикселей
Соотношение сторон : 2,40:1
Режим частоты кадров : Постоянный
Частота кадров : 23,976 (24000/1001) кадра/сек
Цветовое пространство : YUV
Субдискретизация насыщенности : 4:2:0
Битовая глубина : 8 бит
Тип развёртки : Прогрессивная
Бит/(Пиксели*Кадры) : 0.354
Размер потока : 4,79 Гбайт (80%)
Заголовок : IFT
Библиотека кодирования : x264 core 142 r2431+42 c69a006 tMod [8-bit@all X86_64]
Настройки программы : cabac=1 / ref=12 / deblock=1:-3:-3 / analyse=0x3:0x133 / me=umh / subme=11 / psy=1 / fade_compensate=0.00 / psy_rd=1.05:0.15 / mixed_ref=1 / me_range=48 / chroma_me=1 / trellis=2 / 8x8dct=1 / cqm=0 / deadzone=21,11 / fast_pskip=1 / chroma_qp_offset=-3 / threads=16 / lookahead_threads=2 / sliced_threads=0 / nr=0 / decimate=0 / interlaced=0 / bluray_compat=0 / constrained_intra=0 / fgo=0 / bframes=8 / b_pyramid=2 / b_adapt=2 / b_bias=0 / direct=3 / weightb=1 / open_gop=0 / weightp=2 / keyint=240 / keyint_min=23 / scenecut=40 / intra_refresh=0 / rc_lookahead=60 / rc=2pass / mbtree=1 / bitrate=5820 / ratetol=1.0 / qcomp=0.70 / qpmin=0:0:0 / qpmax=69:69:69 / qpstep=4 / cplxblur=20.0 / qblur=0.5 / vbv_maxrate=50000 / vbv_bufsize=62500 / nal_hrd=none / filler=0 / ip_ratio=1.30 / aq=1:0.80 / aq-sensitivity=10.00 / aq-factor=1.00:1.00:1.00 / aq2=0 / aq3=0
Язык : English
Default : Нет
Forced : Нет
Цветовой диапазон : Limited
Основные цвета : BT.709
Характеристики трансфера : BT.709
Коэффициенты матрицы : BT.709
Аудио #1
Идентификатор : 2
Формат : AC-3
Формат/Информация : Audio Coding 3
Параметр Endianness формата : Big
Идентификатор кодека : A_AC3
Продолжительность : 2 ч. 0 м.
Вид битрейта : Постоянный
Битрейт : 640 Кбит/сек
Каналы : 6 каналов
Расположение каналов : Front: L C R, Side: L R, LFE
Частота : 48,0 КГц
Частота кадров : 31,250 кадров/сек (1536 SPF)
Битовая глубина : 16 бит
Метод сжатия : С потерями
Размер потока : 552 Мбайт (9%)
Заголовок : MVO [Paradox&Omskbird]
Язык : Russian
ServiceKind/ : Complete Main
Default : Да
Forced : Нет
Аудио #2
Идентификатор : 3
Формат : AC-3
Формат/Информация : Audio Coding 3
Параметр Endianness формата : Big
Идентификатор кодека : A_AC3
Продолжительность : 2 ч. 0 м.
Вид битрейта : Постоянный
Битрейт : 640 Кбит/сек
Каналы : 6 каналов
Расположение каналов : Front: L C R, Side: L R, LFE
Частота : 48,0 КГц
Частота кадров : 31,250 кадров/сек (1536 SPF)
Битовая глубина : 16 бит
Метод сжатия : С потерями
Размер потока : 552 Мбайт (9%)
Заголовок : English
Язык : English
ServiceKind/ : Complete Main
Default : Нет
Forced : Нет
Текст #1
Идентификатор : 4
Формат : UTF-8
Идентификатор кодека : S_TEXT/UTF8
Идентификатор кодека/Информация : UTF-8 Plain Text
Заголовок : Full
Язык : English
Default : Нет
Forced : Нет
Текст #2
Идентификатор : 5
Формат : UTF-8
Идентификатор кодека : S_TEXT/UTF8
Идентификатор кодека/Информация : UTF-8 Plain Text
Заголовок : SDH
Язык : English
Default : Нет
Forced : Нет
Меню
00:00:00.000 : en:Chapter 01
00:22:10.620 : en:Chapter 02
00:35:14.570 : en:Chapter 03
00:53:05.223 : en:Chapter 04
01:06:42.039 : en:Chapter 05
01:22:27.359 : en:Chapter 06
01:40:29.481 : en:Chapter 07
01:54:37.996 : en:Chapter 08
02:00:41.484 : en:Chapter 09

Скриншоты

[Профиль] [ЛС]
Показать сообщения:    

Текущее время: Сегодня 19:03

Часовой пояс: GMT



Вы не можете начинать темы
Вы не можете отвечать на сообщения
Вы не можете редактировать свои сообщения
Вы не можете удалять свои сообщения
Вы не можете голосовать в опросах
Вы не можете прикреплять файлы к сообщениям
Вы не можете скачивать файлы