Выстрел в пустоту / Shot Caller (Рик Роман Во) [2017 г., триллер, драма, криминал, BDRip-AVC] [DUB (iTunes)]

 
Автор Сообщение

Bathory ®

Пол:

Стаж: 1 год 9 месяцев

Сообщений: 320



Награды: 3 (Подробнее)

За внесенный вклад в развитие сайта (Количество: 1) Girls (Количество: 1) Друг (Количество: 1)
Торрент-статистика

Создавать темы 07-Авг-2017 13:51

[Цитировать]

Выстрел в пустоту / Shot Caller- Информация о фильме
Название: Выстрел в пустоту
Оригинальное название: Shot Caller
Год выхода: 2017
Жанр: Триллер, драма, криминал
Режиссер: Рик Роман Во
В ролях: Николай Костер-Вальдау, Джон Бернтал, Лэйк Белл, Омари Хардвик, Джеффри Донован, Эмори Коэн, Бенджамин Брэтт, Джесси Шрэм, Холт МакКэллани
О фильме:
Роковая случайность, смертельная трагедия, и вся его жизнь летит под откос… Оказавшись за решеткой, он должен научиться жить по новым законам. Ты должен стать борцом, авторитетом или окажешься жертвой. Какую цену придется заплатить, чтобы выжить в этом аду, из которого нет дороги назад?..

Страна: США
Студия: Bold Films, DirecTV, Participant Media, Relativity Media
Продолжительность: 02:00:41
Перевод: Дубляж | iTunes
Файл
Кодек: AVC
Качество: BDRip-AVC | BDRemux 1080p |
Видео: 728x304, 797 kbps, 23,976 fps, 0,150 Bits/(Pixel*Frame)
Звук: AAC, 48 kHz, 2 ch, 64 kbps
Субтитры: Нет

MI

Общее
Unique ID : 175160304824692594896014197787617790829 (0x83C6A5C9F6F844FBA72AF97668CE0B6D)
Complete name : D:\Shot.Caller.2017.BDRip-AVC.MegaPeer.mkv
Format : Matroska
Format version : Version 4 / Version 2
File size : 744 Мбайт
Duration : 2 ч. 0 м.
Overall bit rate : 862 Кбит/сек
Encoded date : UTC 2017-08-07 13:36:33
Writing application : mkvmerge v14.0.0 ('Flow') 64bit
Writing library : libebml v1.3.4 + libmatroska v1.4.5
Видео
ID : 1
Format : AVC
Format/Info : Advanced Video Codec
Format profile : High@L4.1
Format settings, CABAC : Да
Format settings, ReFrames : 12 кадров
Codec ID : V_MPEG4/ISO/AVC
Duration : 2 ч. 0 м.
Bit rate : 797 Кбит/сек
Width : 728 пикселей
Height : 304 пикселя
Display aspect ratio : 2,40:1
Frame rate mode : Постоянный
Frame rate : 23,976 (24000/1001) кадра/сек
Color space : YUV
Chroma subsampling : 4:2:0
Bit depth : 8 бит
Scan type : Прогрессивная
Bits/(Pixel*Frame) : 0.150
Stream size : 687 Мбайт (92%)
Writing library : x264 core 152 r2851 ba24899
Encoding settings : cabac=1 / ref=12 / deblock=1:-3:-3 / analyse=0x3:0x133 / me=umh / subme=11 / psy=1 / psy_rd=1.00:0.07 / mixed_ref=1 / me_range=32 / chroma_me=1 / trellis=2 / 8x8dct=1 / cqm=0 / deadzone=21,11 / fast_pskip=0 / chroma_qp_offset=-3 / threads=9 / lookahead_threads=2 / sliced_threads=0 / nr=0 / decimate=0 / interlaced=0 / bluray_compat=0 / constrained_intra=0 / bframes=14 / b_pyramid=2 / b_adapt=2 / b_bias=0 / direct=3 / weightb=1 / open_gop=0 / weightp=2 / keyint=240 / keyint_min=23 / scenecut=0 / intra_refresh=0 / rc_lookahead=60 / rc=2pass / mbtree=1 / bitrate=797 / ratetol=1.0 / qcomp=0.60 / qpmin=0 / qpmax=51 / qpstep=4 / cplxblur=15.0 / qblur=0.5 / vbv_maxrate=50000 / vbv_bufsize=62500 / nal_hrd=none / filler=0 / ip_ratio=1.40 / aq=1:1.00
Default : Да
Forced : Нет
Аудио
ID : 2
Format : AAC
Format/Info : Advanced Audio Codec
Format profile : LC
Codec ID : A_AAC
Duration : 2 ч. 0 м.
Bit rate : 64,0 Кбит/сек
Channel(s) : 2 канала
Channel positions : Front: L R
Sampling rate : 48,0 КГц
Frame rate : 46,875 кадров/сек (1024 spf)
Compression mode : С потерями
Stream size : 55,2 Мбайт (7%)
Language : Russian
Default : Да
Forced : Нет

Скриншоты

Релиз:
[Профиль] [ЛС]
Показать сообщения:    

Текущее время: Сегодня 20:54

Часовой пояс: GMT



Вы не можете начинать темы
Вы не можете отвечать на сообщения
Вы не можете редактировать свои сообщения
Вы не можете удалять свои сообщения
Вы не можете голосовать в опросах
Вы не можете прикреплять файлы к сообщениям
Вы не можете скачивать файлы