Высоцкий. Последний концерт (1980) HDTV [1080i]

 
Автор Сообщение

sergej644 ®

Пол:

Стаж: 4 года 11 месяцев

Сообщений: 6035

Откуда: Soviet Union



Награды: Нет

Торрент-статистика

Создавать темы 27-Окт-2014 09:23

[Цитировать]

--Высоцкий. Последний концерт (1980) HDTV [1080i] Год выпуска: 1980
Жанр: Концерт
Режиссер: Ксения Маринина
Описание фильма:
Советское телевидение никогда не жаловало Высоцкого. Ситуация радикальным образом изменилась только после 1987 года, когда ему посмертно была присуждена Государственная премия СССР. Лишь после этого советские телевизионные начальники позволили себе признать, что Высоцкий писал хорошие стихи и был выдающимся актёром. Увы, было уже поздно...
Не существует ни одной полной видеозаписи спектаклей с участием Владимира Семеновича, ни одного полного сольного концерта. 30 лет тому назад сама идея трансляции песен Высоцкого по советскому телевидению выглядела утопией. На Центральное телевидение Высоцкий был приглашён лишь однажды, в январе 1980 года. На запись Владимира Семеновича пригласила многолетний режиссёр "Кинопанорамы" Ксения Маринина.
22 января 1980 года состоялась запись Высоцкого в Останкино. Политическая ситуация однако была такова, что пустить в эфир этот концерт было нереально. Решили сделать ещё одну запись – с участием режиссёра фильма "Место встречи изменить нельзя" Станислава Говорухина и исполнителем роли Шарапова Владимира Конкина. Только в этом контексте был шанс "протащить" песни Высоцкого на телеэкран. Однако эта программа все равно легла на полку. Прошло долгих семь лет, прежде чем отрывок из этого концерта впервые вышел в эфир "Кинопанорамы".
Телезрители Первого канала увидят последний концерт и монолог Владимира Высоцкого в полном и отреставрированном виде.
Продолжительность: 00:51:10
Качество видео: HDTV [1080i]
Видеокодек: MPEG-4 AVC/H.264
Битрейт видео: ~7 847 kb/s
Размер кадра: 1920x1080
Аудио 1: Русский, АС3, 6 ch, 384 kb/s,
Аудио 2: Русский, MP2, 2 ch, 224 kb/s-

Треклист

1. Вступление. Песни из фильма "Вертикаль"
2. Мы вращаем Землю
3. Почему аборигены съели Кука, или Одна научная загадка
4. Я не люблю...
5. Пожары
6. Утренняя гимнастика
7. Песенка ни про что, или Что случилось в Африке
8. Письмо в редакцию телепередачи "Очевидное - невероятное"
9. Песня о Земле
10. Баллада о Любви

MediaInfo

General
Unique ID : 251686314161073363049228273925133432539 (0xBD590559EEFA6D9AACF32EC1F313F6DB)
Complete name : M:\Торренты\Документальные\Высоцкий_Последний концерт_HD.mkv
Format : Matroska
Format version : Version 4 / Version 2
File size : 3.08 GiB
Duration : 51mn 10s
Overall bit rate : 8 627 Kbps
Encoded date : UTC 2014-07-26 07:47:59
Writing application : mkvmerge v6.6.0 ('The Edge Of The In Between') built on Dec 1 2013 17:55:00
Writing library : libebml v1.3.0 + libmatroska v1.4.1
Video
ID : 1
Format : AVC
Format/Info : Advanced Video Codec
Format profile : High@L4.0
Format settings, CABAC : Yes
Format settings, ReFrames : 3 frames
Codec ID : V_MPEG4/ISO/AVC
Bit rate : 7 847 Kbps
Width : 1 920 pixels
Height : 1 080 pixels
Display aspect ratio : 16:9
Frame rate mode : Variable
Original frame rate : 25.000 fps
Standard : PAL
Color space : YUV
Chroma subsampling : 4:2:0
Bit depth : 8 bits
Scan type : Interlaced
Scan order : Top Field First
Default : Yes
Forced : No
Color primaries : BT.709
Transfer characteristics : BT.709
Matrix coefficients : BT.709
Audio #1
ID : 2
Format : MPEG Audio
Format version : Version 1
Format profile : Layer 2
Codec ID : A_MPEG/L2
Codec ID/Hint : MP2
Duration : 51mn 10s
Bit rate mode : Constant
Bit rate : 224 Kbps
Channel(s) : 2 channels
Sampling rate : 48.0 KHz
Compression mode : Lossy
Delay relative to video : 131ms
Stream size : 82.0 MiB (3%)
Default : Yes
Forced : No
Audio #2
ID : 3
Format : AC-3
Format/Info : Audio Coding 3
Mode extension : CM (complete main)
Format settings, Endianness : Big
Codec ID : A_AC3
Duration : 51mn 10s
Bit rate mode : Constant
Bit rate : 384 Kbps
Channel(s) : 6 channels
Channel positions : Front: L C R, Side: L R, LFE
Sampling rate : 48.0 KHz
Bit depth : 16 bits
Compression mode : Lossy
Delay relative to video : 65ms
Stream size : 141 MiB (4%)
Default : No
Forced : No
Скриншоты:
--
[Профиль] [ЛС]

Создавать темы 13-Авг-2015 12:04 (спустя 9 месяцев 17 дней)

Топик был перенесен из форума Концерты в форум Наши концерты
sergej644
 
Кто просматривает тему:

Форум Тема Автор Размер
Шансон, авторская и военная песня (Author's Song) Владимир Высоцкий - Коллекция (New Sound) [15] - 2005 - 2007, MP3 (tracks+image) , 320 kbps sergej644 2.07 GB
Шансон, авторская и военная песня (Author's Song) Владимир Высоцкий - Лучшее (1, 2 Том) (4 CD) - 2008 [MP3, tracks, 320 kbps] sergej644 724 MB
Шансон, авторская и военная песня (Author's Song) Владимир Высоцкий в записях Михаила Шемякина (7CD) - Коллекция - 1996 [MP3, tracks, 320 kbps] sergej644 939 MB
Author's Song (Author's Song) Владимир Высоцкий. Спасибо, что живой (Коллекция изд. Амфора, 11 CD) 2011 - 2012, FLAC (image + .cue), lossless sergej644 2.53 GB
Шансон, авторская и военная песня (Author's Song) Владимир Высоцкий. Спасибо, что живой (Коллекция изд. Амфора, 11 CD) 2011 - 2012, [MP3, tracks, 320 kbps] sergej644 1.05 GB
Author's Song (Author's Song) Высоцкий - Любимые песни и баллады - 2013 [APE, image+.cue, lossless] sergej644 395 MB
Vinyl-Rip и Hand-Made (Chanson) [LP] [32/192] Владимир Высоцкий - Omagatoki (2 LP) - 1985 (Japan), WavPack (image+.cue) sergej644 2.99 GB
Author's Song (Авторская песня) Владимир Высоцкий - Le Vol Arrete (Le chant du monde 1977) - 2010 [WavPack, image +.cue, lossless] sergej644 476 MB
Показать сообщения:    

Текущее время: Сегодня 20:09

Часовой пояс: GMT



Вы не можете начинать темы
Вы не можете отвечать на сообщения
Вы не можете редактировать свои сообщения
Вы не можете удалять свои сообщения
Вы не можете голосовать в опросах
Вы не можете прикреплять файлы к сообщениям
Вы не можете скачивать файлы