(Author's Song) Высоцкий - Любимые песни и баллады - 2013 [APE, image+.cue, lossless]

 
Автор Сообщение

sergej644 ®

Пол:

Стаж: 4 года 11 месяцев

Сообщений: 6046

Откуда: Soviet Union



Награды: Нет

Торрент-статистика

Создавать темы 15-Дек-2015 10:07

[Цитировать]

-Высоцкий / Любимые песни и баллады-- Год издания: 2013
Страна: Russia
Жанр: Author's Song
Продолжительность: 01:14:05-Лейбл издания: ООО МИЦ "Музпром-МО". Лицензия МТПР России ВАФ № 77-15
Номер по каталогу: CDRDM0413937
Формат: APE
Битрейт аудио: lossless
Тип рипа: image+.cue
Наличие сканов в содержимом раздачи: да
-

Трэклист

01. Певец у микрофона (04:28)
02. Баллада о детстве (05:33)
03. Баллада о борьбе (04:06)
04. Купола (04:15)
05. Песня о новом времени (02:38)
06. Дорожная история (03:15)
07. Чужая колея (03:36)
08. Я не люблю (02:13)
09. Погоня (03:04)
10. Старый дом (02:59)
11. Здесь лапы у елей (03:19)
12. О фатальных датах и цифрах (02:35)
13. Баллада об уходе в рай (02:55)
14. Памятник (04:08)
15. Ещё не вечер (02:43)
16. Бег иноходца (02:17)
17. Кони привередливые (05:37)
18. Гололёд (01:36)
19. Дом хрустальный (02:28)
20. Моя цыганская (04:07)
21. Баллада о любви (06:22)
-

Лог создания рипа

Exact Audio Copy V1.1 from 23. June 2015
Отчёт EAC об извлечении, выполненном 10. августа 2015, 19:24
Владимир Высоцкий / Любимые песни и баллады
Дисковод: PLEXTOR DVDR   PX-760A   Adapter: 1  ID: 0
Режим чтения                 : Достоверность
Использование точного потока : Да
Отключение кэша аудио        : Да
Использование указателей C2  : Нет
Коррекция смещения при чтении                     : 30
Способность читать области Lead-in и Lead-out     : Да
Заполнение пропущенных сэмплов тишиной            : Да
Удаление блоков с тишиной в начале и конце        : Нет
При вычислениях CRC использовались нулевые сэмплы : Да
Интерфейс                                         : Встроенный Win32-интерфейс для Win NT/2000
Выходной формат : Внутренние WAV-операции
Формат сэмплов  : 44.100 Гц; 16 бит; стерео
TOC извлечённого CD
     Трек |   Старт  | Длительность | Начальный сектор | Конечный сектор
    ---------------------------------------------------------------------
       1  |  0:00.00 |    4:27.07   |           0      |      20031
       2  |  4:27.07 |    5:33.00   |       20032      |      45006
       3  | 10:00.07 |    4:06.00   |       45007      |      63456
       4  | 14:06.07 |    4:14.53   |       63457      |      82559
       5  | 18:20.60 |    2:37.62   |       82560      |      94396
       6  | 20:58.47 |    3:14.36   |       94397      |     108982
       7  | 24:13.08 |    3:35.41   |      108983      |     125148
       8  | 27:48.49 |    2:12.16   |      125149      |     135064
       9  | 30:00.65 |    3:03.43   |      135065      |     148832
      10  | 33:04.33 |    2:58.04   |      148833      |     162186
      11  | 36:02.37 |    3:18.35   |      162187      |     177071
      12  | 39:20.72 |    2:34.10   |      177072      |     188631
      13  | 41:55.07 |    2:54.51   |      188632      |     201732
      14  | 44:49.58 |    4:07.12   |      201733      |     220269
      15  | 48:56.70 |    2:42.72   |      220270      |     232491
      16  | 51:39.67 |    2:16.25   |      232492      |     242716
      17  | 53:56.17 |    5:36.14   |      242717      |     267930
      18  | 59:32.31 |    1:36.00   |      267931      |     275130
      19  | 61:08.31 |    2:27.20   |      275131      |     286175
      20  | 63:35.51 |    4:06.62   |      286176      |     304687
      21  | 67:42.38 |    6:21.39   |      304688      |     333301
Характеристики диапазона извлечения и сообщения об ошибках
Выбранный диапазон
     Имя файла C:\В. Высоцкий - Любимые песни и баллады\Владимир Высоцкий - Любимые песни и баллады.wav
     Пиковый уровень 98.2 %
     Скорость извлечения 1.3 X
     Качество диапазона 100.0 %
     CRC копии E8D438D1
     Копирование... OK
Ошибок не произошло
AccurateRip: сводка
Трек  1  : извлечено точно (доверие 1)  [27D2A08A]  (AR v2)
Трек  2  : извлечено точно (доверие 1)  [BD0346D0]  (AR v2)
Трек  3  : извлечено точно (доверие 1)  [9D49CA0D]  (AR v2)
Трек  4  : извлечено точно (доверие 1)  [64B80D01]  (AR v2)
Трек  5  : извлечено точно (доверие 1)  [30E0A3B8]  (AR v2)
Трек  6  : извлечено точно (доверие 1)  [42F95409]  (AR v2)
Трек  7  : извлечено точно (доверие 1)  [18DF06CF]  (AR v2)
Трек  8  : извлечено точно (доверие 1)  [343524DB]  (AR v2)
Трек  9  : извлечено точно (доверие 1)  [3183EF24]  (AR v2)
Трек 10  : извлечено точно (доверие 1)  [0F1186CD]  (AR v2)
Трек 11  : извлечено точно (доверие 1)  [6145EFEE]  (AR v2)
Трек 12  : извлечено точно (доверие 1)  [711B9884]  (AR v2)
Трек 13  : извлечено точно (доверие 1)  [64D51A46]  (AR v2)
Трек 14  : извлечено точно (доверие 1)  [E3DBD3DE]  (AR v2)
Трек 15  : извлечено точно (доверие 1)  [FFA0DF17]  (AR v2)
Трек 16  : извлечено точно (доверие 1)  [86CEEC8E]  (AR v2)
Трек 17  : извлечено точно (доверие 1)  [C310582C]  (AR v2)
Трек 18  : извлечено точно (доверие 1)  [691162B6]  (AR v2)
Трек 19  : извлечено точно (доверие 1)  [E9528827]  (AR v2)
Трек 20  : извлечено точно (доверие 1)  [343C47E6]  (AR v2)
Трек 21  : извлечено точно (доверие 1)  [5EC9410D]  (AR v2)
Все треки извлечены точно
Конец отчёта
---- CUETools DB Plugin V2.1.6
[CTDB TOCID: Pc4TmbCN72wmtyN8hAVk5KINh_8-] disk not present in database
Submit result: Pc4TmbCN72wmtyN8hAVk5KINh_8- has been uploaded

Индексная карта (non-compilant .cue)

REM DISCID 27115C15
REM COMMENT "ExactAudioCopy v1.1"
PERFORMER "Владимир Высоцкий"
TITLE "Любимые песни и баллады"
FILE "Владимир Высоцкий - Любимые песни и баллады.wav" WAVE
  TRACK 01 AUDIO
    TITLE "Певец у микрофона "
    PERFORMER "Владимир Высоцкий"
    FLAGS DCP
    INDEX 01 00:00:00
  TRACK 02 AUDIO
    TITLE "Баллада о детстве"
    PERFORMER "Владимир Высоцкий"
    FLAGS DCP
    INDEX 00 04:24:07
    INDEX 01 04:27:07
  TRACK 03 AUDIO
    TITLE "Баллада о борьбе"
    PERFORMER "Владимир Высоцкий"
    FLAGS DCP
    INDEX 00 09:57:07
    INDEX 01 10:00:07
  TRACK 04 AUDIO
    TITLE "Купола"
    PERFORMER "Владимир Высоцкий"
    FLAGS DCP
    INDEX 00 14:04:07
    INDEX 01 14:06:07
  TRACK 05 AUDIO
    TITLE "Песня о новом времени"
    PERFORMER "Владимир Высоцкий"
    FLAGS DCP
    INDEX 00 18:18:60
    INDEX 01 18:20:60
  TRACK 06 AUDIO
    TITLE "Дорожная история"
    PERFORMER "Владимир Высоцкий"
    FLAGS DCP
    INDEX 00 20:55:47
    INDEX 01 20:58:47
  TRACK 07 AUDIO
    TITLE "Чужая колея"
    PERFORMER "Владимир Высоцкий"
    FLAGS DCP
    INDEX 00 24:11:08
    INDEX 01 24:13:08
  TRACK 08 AUDIO
    TITLE "Я не люблю"
    PERFORMER "Владимир Высоцкий"
    FLAGS DCP
    INDEX 00 27:45:49
    INDEX 01 27:48:49
  TRACK 09 AUDIO
    TITLE "Погоня"
    PERFORMER "Владимир Высоцкий"
    FLAGS DCP
    INDEX 00 29:57:65
    INDEX 01 30:00:65
  TRACK 10 AUDIO
    TITLE "Старый дом"
    PERFORMER "Владимир Высоцкий"
    FLAGS DCP
    INDEX 00 33:02:33
    INDEX 01 33:04:33
  TRACK 11 AUDIO
    TITLE "Здесь лапы у елей"
    PERFORMER "Владимир Высоцкий"
    FLAGS DCP
    INDEX 00 35:59:37
    INDEX 01 36:02:37
  TRACK 12 AUDIO
    TITLE "О фатальных датах и цифрах"
    PERFORMER "Владимир Высоцкий"
    FLAGS DCP
    INDEX 00 39:17:72
    INDEX 01 39:20:72
  TRACK 13 AUDIO
    TITLE "Баллада об уходе в рай"
    PERFORMER "Владимир Высоцкий"
    FLAGS DCP
    INDEX 00 41:52:07
    INDEX 01 41:55:07
  TRACK 14 AUDIO
    TITLE "Памятник"
    PERFORMER "Владимир Высоцкий"
    FLAGS DCP
    INDEX 00 44:46:58
    INDEX 01 44:49:58
  TRACK 15 AUDIO
    TITLE "Ещё не вечер"
    PERFORMER "Владимир Высоцкий"
    FLAGS DCP
    INDEX 00 48:54:70
    INDEX 01 48:56:70
  TRACK 16 AUDIO
    TITLE "Бег иноходца"
    PERFORMER "Владимир Высоцкий"
    FLAGS DCP
    INDEX 00 51:36:67
    INDEX 01 51:39:67
  TRACK 17 AUDIO
    TITLE "Кони привередливые"
    PERFORMER "Владимир Высоцкий"
    FLAGS DCP
    INDEX 00 53:54:17
    INDEX 01 53:56:17
  TRACK 18 AUDIO
    TITLE "Гололёд"
    PERFORMER "Владимир Высоцкий"
    FLAGS DCP
    INDEX 00 59:30:31
    INDEX 01 59:32:31
  TRACK 19 AUDIO
    TITLE "Дом хрустальный"
    PERFORMER "Владимир Высоцкий"
    FLAGS DCP
    INDEX 00 61:06:31
    INDEX 01 61:08:31
  TRACK 20 AUDIO
    TITLE "Моя цыганская"
    PERFORMER "Владимир Высоцкий"
    FLAGS DCP
    INDEX 00 63:32:51
    INDEX 01 63:35:51
  TRACK 21 AUDIO
    TITLE "Баллада о любви"
    PERFORMER "Владимир Высоцкий"
    FLAGS DCP
    INDEX 00 67:39:38
    INDEX 01 67:42:38
-
[Профиль] [ЛС]
Кто просматривает тему:

Форум Тема Автор Размер
Author's Song (Author's Song) Александр Розенбаум - Музыка Стихов. Избранное (5CD box) Подарочное издание - 2011, MP3, 320 kbps sergej644 1.1 GB
Шансон, авторская и военная песня (Author's Song) Владимир Высоцкий - Коллекция (New Sound) [15] - 2005 - 2007, MP3 (tracks+image) , 320 kbps sergej644 2.07 GB
Шансон, авторская и военная песня (Author's Song) Владимир Высоцкий - Лучшее (1, 2 Том) (4 CD) - 2008 [MP3, tracks, 320 kbps] sergej644 724 MB
Шансон, авторская и военная песня (Author's Song) Владимир Высоцкий в записях Михаила Шемякина (7CD) - Коллекция - 1996 [MP3, tracks, 320 kbps] sergej644 939 MB
Author's Song (Author's Song) Владимир Высоцкий. Спасибо, что живой (Коллекция изд. Амфора, 11 CD) 2011 - 2012, FLAC (image + .cue), lossless sergej644 2.53 GB
Шансон, авторская и военная песня (Author's Song) Владимир Высоцкий. Спасибо, что живой (Коллекция изд. Амфора, 11 CD) 2011 - 2012, [MP3, tracks, 320 kbps] sergej644 1.05 GB
Шансон, авторская и военная песня (Author's Song) Игорь Тальков - Collections (8CD) - 1993 - 2001 [FLAC, image+.cue, lossless] sergej644 3.05 GB
Author's Song (Author's Song) Никольский Константин - Музыкант (Лучшие песни) (2CD) - 2015 [FLAC, image+.cue, lossless] sergej644 765 MB
Показать сообщения:    

Текущее время: Сегодня 21:34

Часовой пояс: GMT



Вы не можете начинать темы
Вы не можете отвечать на сообщения
Вы не можете редактировать свои сообщения
Вы не можете удалять свои сообщения
Вы не можете голосовать в опросах
Вы не можете прикреплять файлы к сообщениям
Вы не можете скачивать файлы