Высокий блондин в черном ботинке / Le grand blond avec une chaussure noire (1972) BDRip [720p]

 
Автор Сообщение

sergej644 ®

Пол:

Стаж: 4 года 11 месяцев

Сообщений: 6045

Откуда: Soviet Union



Награды: Нет

Торрент-статистика

Создавать темы 18-Окт-2014 20:23

[Цитировать]

-Высокий блондин в черном ботинке / Le grand blond avec une chaussure noire (1972) BDRip [720p]
« А может он не скрипач, а всё же тайный агент? »
- Год выпуска: 1972
Производство: Франция | Gaumont International, Madeleine Films, Films de la Guville
Жанр: Комедия, Детектив
Режиссер: Ив Робер
Продюсер: Ален Пуаре, Ив Робер
Актеры: Пьер Ришар, Бернар Блие, Жан Рошфор, Мирей Дарк, Колетт Кастель, Жан Об, Робер Кастель, Жан Содрэ, Роже Качча, Морис Барье, Робер Дальбан, Арлетт Балкис, Таня Балашова, Поль Ле Персон, Жан Карме, Марсель Гассук
Описание фильма: Рассеянного скрипача-виртуоза Франсуа Перрена принимают за секретного суперагента. Высокий блондин оказывается крепким орешком. Он с легкостью избегает всех опасностей, даже не подозревая о них.
Перевод: Профессиональный дублированный, профессиональный многоголосый- -Дата мировой премьеры: 6 декабря 1972
Дата выхода DVD релиза: 7 августа 2008, «Союз-Видео»
Продолжительность: 01:29:33
Возраст 12+: Зрителям, достигшим 12 лет
Рейтинг MPAA PG: Рекомендуется присутствие родителей
Качество видео: BDRip [720p]
Видео: MPEG-4 AVC/H.264, 7000 Kbps, 1194 x 720
Аудио 1: Русский AC3 2.0, 192 Kbps, 48.0 KHz (Полное дублирование) Союзмультфильм
Аудио 2: Русский AC3 2.0, 192 Kbps, 48.0 KHz (Многоголосый закадровый) Союз Видео-

MediaInfo

Общее
Полное имя : Высокий блондин в черном ботинке.mkv
Формат : Matroska
Версия формата : Version 1
Размер файла : 4,62 Гбайт
Продолжительность : 1 ч. 29 м.
Общий поток : 7386 Кбит/сек
Дата кодирования : UTC 2014-10-17 03:07:40
Программа кодирования : mkvmerge v2.4.1 ('Use Me') built on Dec 5 2008 18:30:05
Библиотека кодирования : libebml v0.7.7 + libmatroska v0.8.1
Видео
Идентификатор : 1
Формат : AVC
Формат/Информация : Advanced Video Codec
Профиль формата : [url=mailto:High@L4.1]High@L4.1[/url]
Параметр CABAC формата : Да
Параметр ReFrames формата : 9 кадров
Идентификатор кодека : V_MPEG4/ISO/AVC
Продолжительность : 1 ч. 29 м.
Битрейт : 7000 Кбит/сек
Ширина : 1194 пикселя
Высота : 720 пикселей
Соотношение сторон : 1,658
Режим частоты кадров : Постоянный
Частота кадров : 24,000 кадра/сек
Цветовое пространство : YUV
Субдискретизация насыщенности : 4:2:0
Битовая глубина : 8 бит
Тип развёртки : Прогрессивная
Бит/(Пиксели*Кадры) : 0.339
Размер потока : 4,29 Гбайт (93%)
Заголовок : Высокий блондин в черном ботинке (1972)
Библиотека кодирования : x264 core 142 r2431 ac76440
Настройки программы : cabac=1 / ref=9 / deblock=1:-3:-3 / analyse=0x3:0x133 / me=umh / subme=10 / psy=1 / psy_rd=1.00:0.10 / mixed_ref=1 / me_range=48 / chroma_me=1 / trellis=2 / 8x8dct=1 / cqm=0 / deadzone=21,11 / fast_pskip=0 / chroma_qp_offset=-3 / threads=6 / lookahead_threads=1 / sliced_threads=0 / nr=0 / decimate=1 / interlaced=0 / bluray_compat=0 / constrained_intra=0 / bframes=5 / b_pyramid=2 / b_adapt=2 / b_bias=0 / direct=3 / weightb=1 / open_gop=0 / weightp=2 / keyint=240 / keyint_min=22 / scenecut=40 / intra_refresh=0 / rc_lookahead=40 / rc=2pass / mbtree=1 / bitrate=7000 / ratetol=1.0 / qcomp=0.60 / qpmin=10 / qpmax=51 / qpstep=4 / cplxblur=20.0 / qblur=0.5 / ip_ratio=1.40 / aq=1:1.00
Язык : French
Аудио #1
Идентификатор : 2
Формат : AC-3
Формат/Информация : Audio Coding 3
Расширение режима : CM (complete main)
Параметр Endianness формата : Big
Идентификатор кодека : A_AC3
Продолжительность : 1 ч. 29 м.
Вид битрейта : Постоянный
Битрейт : 192 Кбит/сек
Каналы : 2 канала
Расположение каналов : Front: L R
Частота : 48,0 КГц
Битовая глубина : 16 бит
Метод сжатия : С потерями
Размер потока : 123 Мбайт (3%)
Заголовок : AC3 (Дублированный) Союзмультфильм
Язык : Russian
Аудио #2
Идентификатор : 3
Формат : AC-3
Формат/Информация : Audio Coding 3
Расширение режима : CM (complete main)
Параметр Endianness формата : Big
Идентификатор кодека : A_AC3
Продолжительность : 1 ч. 29 м.
Вид битрейта : Постоянный
Битрейт : 192 Кбит/сек
Каналы : 2 канала
Расположение каналов : Front: L R
Частота : 48,0 КГц
Битовая глубина : 16 бит
Метод сжатия : С потерями
Размер потока : 123 Мбайт (3%)
Заголовок : AC3 (Многоголосый) Союз Видео
Язык : Russian

Дополнительно

В советском прокате был вырезан ряд сцен. Все эти сцены представляют собой диалоги, которые, по мнению цензоров, носили фривольный характер. В частности были сокращены: обсуждение Миланом досье Блондина, запись людьми Милана свидания Перрена и Полетт, сцена в доме у Кристин.
Платье Кристин (Мирей Дарк), было создано кутюрье Ги Ларошем, а на данный момент хранится в Лувре.
Съемки проходили в аэропорту Орли, на крыше отеля Hilton в Париже и в национальном музее искусств и традиций.
Полковник Тулуз живёт со своей матерью, что является намёком на комиссара Сан-Антонио.
Полковник Милан неоднократно раздражённо восклицает «Подлец!», что является отсылкой к ряду других фильмов, где актёр Бернар Блие произносит то же самое слово.
Изначально планировалась иная концовка. После убийства Пусе, Перраш, который предал своего начальника, спасает Милана. Косвенно признав свою гомосексуальность, он решает бежать с Миланом. Высокий блондин, тем временем, погибает от выстрела в аэропорту. Однако, учитывая возможность продолжения, было принято решение убить полковника Милана, для сохранения сюжета вокруг Высокого Блондина.
-Скриншоты:
[Профиль] [ЛС]
Кто просматривает тему:

Форум Тема Автор Размер
BBC BBC: Высокое искусство стран Бенилюкса / The High Art of the Low Countries [серии 1-3 из 3] (Йен Лиз / Ian Leese, Colette Camden) [2012 г., Документальный, история искусств, HDTVRip 720p] skorpionN 5.23 GB
Зарубежные Hoвый Человек-паук: Высокое напряжение в 3Д / The Amazing Spider-Man 2: Rise of Electro 3D (Марк Уэбб) [2014, Фэнтези, боевик, приключения, комикс, супергерой, BDremux, 1080p] BD3D TorrentFilm 34.18 GB
Фильмы 2009 года Адреналин 2: Высокое напряжение / Crank 2: High Voltage (Марк Невелдайн, Брайан Тейлор / Mark Neveldine, Brian Taylor) [2009, США, Боевик, триллер, криминал, BDRip-AVC] Dub + Sub Rus, Eng + Original... TorrentFilm 4 GB
Фильмы (HD Rips | 720p, 1080p) Бродяга высокогорных равнин / High Plains Drifter (1973) BDRip [720p] [40th Anniversary Edition] sergej644 11.63 GB
Фильмы (HD Rips | 720p, 1080p) Возвращение высокого блондина / Le retour du grand blond (1974) BDRip [720p] sergej644 4.18 GB
Фильмы (HD DVD, Blu-ray и BDRemux) Возвращение высокого блондина / Le retour du grand blond / The Return of the Tall Blond Man with One Black Shoe (1974) BDRemux [1080p] sergej644 18.74 GB
Отечественные cериалы Высокие ставки [01-24 из 24] (2015) HDTVRip достали все 12.91 GB
Отечественные cериалы Высокие ставки [S01] (2015) HDTVRip 720p достали все 37 GB
Показать сообщения:    

Текущее время: Сегодня 11:54

Часовой пояс: GMT



Вы не можете начинать темы
Вы не можете отвечать на сообщения
Вы не можете редактировать свои сообщения
Вы не можете удалять свои сообщения
Вы не можете голосовать в опросах
Вы не можете прикреплять файлы к сообщениям
Вы не можете скачивать файлы