Высокий блондин в черном ботинке / Le grand blond avec une chaussure noire / The Tall Blond Man with One Black Shoe (1972) BDRemux [1080p]

 
Автор Сообщение

sergej644 ®

Пол:

Стаж: 4 года 11 месяцев

Сообщений: 6046

Откуда: Soviet Union



Награды: Нет

Торрент-статистика

Создавать темы 21-Июл-2014 10:50

[Цитировать]

-Высокий блондин в черном ботинке / Le grand blond avec une chaussure noire / The Tall Blond Man with One Black Shoe (1972) BDRemux
«goodbye blues, hello laughter»
- Год выпуска: 1972
Производство: Франция / Films de la Gueville, Gaumont
Жанр: Комедия, детектив
Описание фильма:
Рассеянного скрипача-виртуоза Франсуа Перрена принимают за секретного суперагента. Высокий блондин оказывается крепким орешком. Он с легкостью избегает всех опасностей, даже не подозревая о них.
Режиссер: Ив Робер / Yves Robert
Продюсер: Ален Пуаре, Ив Робер
Актеры: Пьер Ришар, Бернар Блие, Жан Рошфор, Мирей Дарк, Колетт Кастель, Жан Об, Робер Кастель, Жан Содрэ, Роже Качча, Морис Барье
Язык: Русский, французский
Перевод: Дублированный (со вставками двухголосого), Двухголосый закадровый (профессиональный), Многоголосый закадровый (профессиональный)
Вид субтитров: Вшитые отключаемые
Язык субтитров: Английский, французский

За исходный материал большое спасибо: HDClub
Дата мировой премьеры: 6 декабря 1972
Дата выхода DVD релиза: 7 августа 2008, «Союз-Видео»
Рейтинг MPAA: PG
Возраст: 12+
Продолжительность: 01:29:32
Качество видео: BDRemux
Видео: MPEG-4 AVC/H.264 (High Profile 4.1), 1920x1080, ~32219 kbps, 0.635 bit/pixel, 24 fps
Аудио 1: AC3 2.0, 192 kbps, 48 kHz, 16-bit [Русский - дублированный «+ вставки DVO »]
Аудио 2: AC3 2.0, 192 kbps, 48 kHz, 16-bit [Русский - двухголосый закадровый «Союз Видео »]
Аудио 3: AC3 2.0, 192 kbps, 48 kHz, 16-bit [Украинский - многоголосый закадровый «К1 »]
Аудио 4: AC3 2.0, 192 kbps, 48 kHz, 16-bit [Украинский - двухголосый закадровый «2+2»]
Аудио 5: DTS-HD MA 2.0, 843 kbps, 48 kHz, 16-bit [Французский - оригинал]

Отчёт MediaInfo

Полное имя                               : D:\Высокий.блондин.в.черном.ботинке-Le.grand.blond.avec.une.chaussure.noire.(1972).BDRemux.[1080p].mkv
Формат                                   : Matroska
Версия формата                           : Version 2
Размер файла                             : 21,2 Гбайт
Продолжительность                        : 1 ч. 29 м.
Режим общего битрейта                    : Переменный
Общий поток                              : 33,8 Мбит/сек
Название фильма                          : Le grand blond avec une chaussure noire (1972) / Lelya_K for NNM-Club
Дата кодирования                         : UTC 2014-07-10 05:15:09
Программа кодирования                    : mkvmerge v5.7.0 ('The Whirlwind') built on Aug  7 2012 14:11:40
Библиотека кодирования                   : libebml v1.2.3 + libmatroska v1.3.0
Attachment                               : Yes
Видео
Идентификатор                            : 1
Формат                                   : AVC
Формат/Информация                        : Advanced Video Codec
Профиль формата                          : [url=mailto:High@L4.1]High@L4.1[/url]
Параметр CABAC формата                   : Да
Параметр ReFrames формата                : 4 кадра
Параметр GOP формата                     : M=3, N=24
Идентификатор кодека                     : V_MPEG4/ISO/AVC
Продолжительность                        : 1 ч. 29 м.
Вид битрейта                             : Переменный
Битрейт                                  : 31,6 Мбит/сек
Максимальный битрейт                     : 35,0 Мбит/сек
Ширина                                   : 1920 пикселей
Высота                                   : 1080 пикселей
Соотношение сторон                       : 16:9
Режим частоты кадров                     : Постоянный
Частота кадров                           : 24,000 кадра/сек
Стандарт вещания                         : NTSC
Цветовое пространство                    : YUV
Субдискретизация насыщенности            : 4:2:0
Битовая глубина                          : 8 бит
Тип развёртки                            : Прогрессивная
Бит/(Пиксели*Кадры)                      : 0.635
Размер потока                            : 19,8 Гбайт (93%)
Заголовок                                : Высокий.блондин.в.черном.ботинке-Le.grand.blond.avec.une.chaussure.noire.(1972).BDRemux.[1080p]
Язык                                     : French
Default                                  : Да
Forced                                   : Нет
Основные цвета                           : BT.709
Характеристики трансфера                 : BT.709
Коэффициенты матрицы                     : BT.709
Аудио #1
Идентификатор                            : 2
Формат                                   : AC-3
Формат/Информация                        : Audio Coding 3
Расширение режима                        : CM (complete main)
Параметр Endianness формата              : Big
Идентификатор кодека                     : A_AC3
Продолжительность                        : 1 ч. 29 м.
Вид битрейта                             : Постоянный
Битрейт                                  : 192 Кбит/сек
Каналы                                   : 2 канала
Расположение каналов                     : Front: L R
Частота                                  : 48,0 КГц
Битовая глубина                          : 16 бит
Метод сжатия                             : С потерями
Размер потока                            : 123 Мбайт (1%)
Заголовок                                : AC3 2.0 / 192 kbps / Dub (советский дубляж со вставками двухголосого перевода)
Язык                                     : Russian
Default                                  : Да
Forced                                   : Нет
Аудио #2
Идентификатор                            : 3
Формат                                   : AC-3
Формат/Информация                        : Audio Coding 3
Расширение режима                        : CM (complete main)
Параметр Endianness формата              : Big
Идентификатор кодека                     : A_AC3
Продолжительность                        : 1 ч. 29 м.
Вид битрейта                             : Постоянный
Битрейт                                  : 192 Кбит/сек
Каналы                                   : 2 канала
Расположение каналов                     : Front: L R
Частота                                  : 48,0 КГц
Битовая глубина                          : 16 бит
Метод сжатия                             : С потерями
Размер потока                            : 123 Мбайт (1%)
Заголовок                                : AC3 2.0 / 192 kbps / DVO (Союз Видео)
Язык                                     : Russian
Default                                  : Нет
Forced                                   : Нет
Аудио #3
Идентификатор                            : 4
Формат                                   : AC-3
Формат/Информация                        : Audio Coding 3
Расширение режима                        : CM (complete main)
Параметр Endianness формата              : Big
Идентификатор кодека                     : A_AC3
Продолжительность                        : 1 ч. 29 м.
Вид битрейта                             : Постоянный
Битрейт                                  : 192 Кбит/сек
Каналы                                   : 2 канала
Расположение каналов                     : Front: L R
Частота                                  : 48,0 КГц
Битовая глубина                          : 16 бит
Метод сжатия                             : С потерями
Размер потока                            : 123 Мбайт (1%)
Заголовок                                : AC3 2.0 / 192 kbps / MVO (К1)
Язык                                     : Ukrainian
Default                                  : Нет
Forced                                   : Нет
Аудио #4
Идентификатор                            : 5
Формат                                   : AC-3
Формат/Информация                        : Audio Coding 3
Расширение режима                        : CM (complete main)
Параметр Endianness формата              : Big
Идентификатор кодека                     : A_AC3
Продолжительность                        : 1 ч. 29 м.
Вид битрейта                             : Постоянный
Битрейт                                  : 192 Кбит/сек
Каналы                                   : 2 канала
Расположение каналов                     : Front: L R
Частота                                  : 48,0 КГц
Битовая глубина                          : 16 бит
Метод сжатия                             : С потерями
Размер потока                            : 123 Мбайт (1%)
Заголовок                                : AC3 2.0 / 192 kbps / DVO (2+2)
Язык                                     : Ukrainian
Default                                  : Нет
Forced                                   : Нет
Аудио #5
Идентификатор                            : 6
Формат                                   : DTS
Формат/Информация                        : Digital Theater Systems
Профиль формата                          : MA / Core
Идентификатор кодека                     : A_DTS
Продолжительность                        : 1 ч. 29 м.
Вид битрейта                             : Переменный
Битрейт                                  : 803 Кбит/сек / 755 Кбит/сек
Каналы                                   : 2 канала
Расположение каналов                     : Front: L R
Частота                                  : 48,0 КГц
Битовая глубина                          : 16 бит
Метод сжатия                             : Без потерь / Lossy
Заголовок                                : DTS-HD MA 2.0 / 843 kbps / Original
Язык                                     : French
Default                                  : Нет
Forced                                   : Нет
Текст #1
Идентификатор                            : 7
Формат                                   : UTF-8
Идентификатор кодека                     : S_TEXT/UTF8
Идентификатор кодека/Информация          : UTF-8 Plain Text
Заголовок                                : Full
Язык                                     : English
Default                                  : Нет
Forced                                   : Нет
Текст #2
Идентификатор                            : 8
Формат                                   : UTF-8
Идентификатор кодека                     : S_TEXT/UTF8
Идентификатор кодека/Информация          : UTF-8 Plain Text
Заголовок                                : Full
Язык                                     : French
Default                                  : Нет
Forced                                   : Нет
Меню
00:00:00.000                             : fr:Chapter 1
00:07:22.082                             : fr:Chapter 2
00:15:14.916                             : fr:Chapter 3
00:23:29.333                             : fr:Chapter 4
00:31:04.875                             : fr:Chapter 5
00:38:40.791                             : fr:Chapter 6
00:46:13.416                             : fr:Chapter 7
00:54:13.457                             : fr:Chapter 8
01:01:27.333                             : fr:Chapter 9
01:07:56.083                             : fr:Chapter 10
01:15:23.291                             : fr:Chapter 11
01:22:48.291                             : fr:Chapter 12
Скриншоты:

--
[Профиль] [ЛС]
Кто просматривает тему:

Форум Тема Автор Размер
BBC BBC: Высокое искусство стран Бенилюкса / The High Art of the Low Countries [серии 1-3 из 3] (Йен Лиз / Ian Leese, Colette Camden) [2012 г., Документальный, история искусств, HDTVRip 720p] skorpionN 5.23 GB
Зарубежные Hoвый Человек-паук: Высокое напряжение в 3Д / The Amazing Spider-Man 2: Rise of Electro 3D (Марк Уэбб) [2014, Фэнтези, боевик, приключения, комикс, супергерой, BDremux, 1080p] BD3D TorrentFilm 34.18 GB
Фильмы 2009 года Адреналин 2: Высокое напряжение / Crank 2: High Voltage (Марк Невелдайн, Брайан Тейлор / Mark Neveldine, Brian Taylor) [2009, США, Боевик, триллер, криминал, BDRip-AVC] Dub + Sub Rus, Eng + Original... TorrentFilm 4 GB
Фильмы (HD Rips | 720p, 1080p) Бродяга высокогорных равнин / High Plains Drifter (1973) BDRip [720p] [40th Anniversary Edition] sergej644 11.63 GB
Фильмы (HD Rips | 720p, 1080p) Возвращение высокого блондина / Le retour du grand blond (1974) BDRip [720p] sergej644 4.18 GB
Фильмы (HD DVD, Blu-ray и BDRemux) Возвращение высокого блондина / Le retour du grand blond / The Return of the Tall Blond Man with One Black Shoe (1974) BDRemux [1080p] sergej644 18.74 GB
Отечественные cериалы Высокие ставки [01-24 из 24] (2015) HDTVRip достали все 12.91 GB
Отечественные cериалы Высокие ставки [S01] (2015) HDTVRip 720p достали все 37 GB
Показать сообщения:    

Текущее время: Сегодня 16:55

Часовой пояс: GMT



Вы не можете начинать темы
Вы не можете отвечать на сообщения
Вы не можете редактировать свои сообщения
Вы не можете удалять свои сообщения
Вы не можете голосовать в опросах
Вы не можете прикреплять файлы к сообщениям
Вы не можете скачивать файлы