Высокие надежды / High Hopes (1988) BDRemux 1080p | A

 
Автор Сообщение

BOSS ®

Пол:

Стаж: 4 года 1 месяц

Сообщений: 12405

Откуда: ODESSA



Награды: 22 (Подробнее)

Mega Seeder 1 (Количество: 1) Top Seeder 2 (Количество: 1) Top Keeper 3 (Количество: 1)
Торрент-статистика

Создавать темы 11-Июл-2018 16:22

[Цитировать]

Информация о фильме
Название: Высокие надежды
Оригинальное название: High Hopes
Год выхода: 1988
Жанр: драма, комедия
Режиссер: Майк Ли
В ролях: Филип Дэвис, Рут Шин, Эдна Доре, Филип Джексон, Хезер Тобиаш, Лесли Мэнвилл, Джейсон Уоткинс
О фильме: История о повседневной жизни супружеской пары из рабочих кварталов Лондона, Ширли и Сирила, а также его матери.

Страна: Великобритания
Продолжительность: 01:52:25
Перевод: Авторский (одноголосый закадровый) Антон Алексеев
Субтитры: английские
Оригинальная аудиодорожка: английский
Файл
Качество: BDRemux 1080p
Видео: MPEG-4 AVC, 1920x1080, 24 fps, ~20 Mbps
Аудио 1: (RUS): DTS-HD MA 48kHz stereo 24 bit ~1536 kbps | Антон Алексеев
Аудио 2: (ENG): DTS-HD MA 48kHz stereo 24 bit ~1536 kbps | Оригинал

Скриншоты

MediaInfo

Общее
Уникальный идентификатор : 198219577261128482213623385929308679204 (0x951FB3B2696E7422B8C3420BE1DFAC24)
Полное имя : High.Hopes.1988.BDRemux.1080p.mkv
Формат : Matroska
Версия формата : Version 4 / Version 2
Размер файла : 18,2 Гбайт
Продолжительность : 1 ч. 52 м.
Режим общего битрейта : Переменный
Общий поток : 23,1 Мбит/сек
Дата кодирования : UTC 2017-11-04 14:08:07
Программа кодирования : mkvmerge v9.7.1 ('Pandemonium') 32bit
Библиотека кодирования : libebml v1.3.4 + libmatroska v1.4.5
Видео
Идентификатор : 1
Формат : AVC
Формат/Информация : Advanced Video Codec
Профиль формата : High@L4.1
Настройки формата : CABAC / 3 Ref Frames
Параметр CABAC формата : Да
Параметр RefFrames формата : 3 кадра
Идентификатор кодека : V_MPEG4/ISO/AVC
Продолжительность : 1 ч. 52 м.
Вид битрейта : Переменный
Битрейт : 20,0 Мбит/сек
Максимальный битрейт : 30,0 Мбит/сек
Ширина : 1920 пикселей
Высота : 1080 пикселей
Соотношение сторон : 16:9
Режим частоты кадров : Постоянный
Частота кадров : 24,000 кадра/сек
Стандарт вещания : NTSC
Цветовое пространство : YUV
Субдискретизация насыщенности : 4:2:0
Битовая глубина : 8 бит
Тип развёртки : Прогрессивная
Бит/(Пиксели*Кадры) : 0.402
Размер потока : 15,7 Гбайт (86%)
Язык : English
Default : Да
Forced : Нет
Цветовой диапазон : Limited
Основные цвета : BT.709
Характеристики трансфера : BT.709
Коэффициенты матрицы : BT.709
Аудио #1
Идентификатор : 2
Формат : DTS
Формат/Информация : Digital Theater Systems
Профиль формата : MA / Core
Идентификатор кодека : A_DTS
Продолжительность : 1 ч. 52 м.
Вид битрейта : Переменный / Постоянный
Битрейт : 1536 Кбит/сек / 768 Кбит/сек
Каналы : 2 канала
Расположение каналов : Front: L R
Частота : 48,0 КГц
Частота кадров : 93,750 кадра/сек (512 SPF)
Битовая глубина : 24 бит
Метод сжатия : Без потерь / Lossy
Размер потока : 1,22 Гбайт (7%)
Заголовок : Антон Алексеев
Язык : Russian
Default : Да
Forced : Нет
Аудио #2
Идентификатор : 3
Формат : DTS
Формат/Информация : Digital Theater Systems
Профиль формата : MA / Core
Идентификатор кодека : A_DTS
Продолжительность : 1 ч. 52 м.
Вид битрейта : Переменный / Постоянный
Битрейт : 1536 Кбит/сек / 768 Кбит/сек
Каналы : 2 канала
Расположение каналов : Front: L R
Частота : 48,0 КГц
Частота кадров : 93,750 кадра/сек (512 SPF)
Битовая глубина : 24 бит
Метод сжатия : Без потерь / Lossy
Размер потока : 1,20 Гбайт (7%)
Заголовок : Original
Язык : English
Default : Нет
Forced : Нет
Текст #1
Идентификатор : 4
Формат : UTF-8
Идентификатор кодека : S_TEXT/UTF8
Идентификатор кодека/Информация : UTF-8 Plain Text
Продолжительность : 1 ч. 46 м.
Битрейт : 64 бит/сек
ElementCount : 1544
Размер потока : 50,3 Кбайт (0%)
Заголовок : English [SRT]
Язык : English
Default : Нет
Forced : Нет
Текст #2
Идентификатор : 5
Формат : UTF-8
Идентификатор кодека : S_TEXT/UTF8
Идентификатор кодека/Информация : UTF-8 Plain Text
Продолжительность : 1 ч. 46 м.
Битрейт : 68 бит/сек
ElementCount : 1616
Размер потока : 53,4 Кбайт (0%)
Заголовок : English SDH [SRT]
Язык : English
Default : Нет
Forced : Нет
Текст #3
Идентификатор : 6
Формат : PGS
Идентификатор кодека : S_HDMV/PGS
Идентификатор кодека/Информация : Picture based subtitle format used on BDs/HD-DVDs
Продолжительность : 1 ч. 46 м.
Битрейт : 42,7 Кбит/сек
ElementCount : 3232
Размер потока : 32,6 Мбайт (0%)
Заголовок : English SDH [PGS]
Язык : English
Default : Нет
Forced : Нет
Меню
00:00:00.000 : en:Chapter 1
00:07:33.208 : en:Chapter 2
00:19:07.708 : en:Chapter 3
00:27:51.458 : en:Chapter 4
00:36:04.667 : en:Chapter 5
00:44:41.750 : en:Chapter 6
00:53:14.167 : en:Chapter 7
01:01:37.875 : en:Chapter 8
01:11:33.375 : en:Chapter 9
01:19:44.792 : en:Chapter 10
01:27:31.042 : en:Chapter 11
01:35:36.625 : en:Chapter 12
01:40:32.333 : en:Chapter 13
01:47:10.917 : en:Chapter 14
[Профиль] [ЛС]
Кто просматривает тему:

Форум Тема Автор Размер
BBC BBC: Высокое искусство стран Бенилюкса / The High Art of the Low Countries [серии 1-3 из 3] (Йен Лиз / Ian Leese, Colette Camden) [2012 г., Документальный, история искусств, HDTVRip 720p] skorpionN 5.23 GB
Зарубежные Hoвый Человек-паук: Высокое напряжение в 3Д / The Amazing Spider-Man 2: Rise of Electro 3D (Марк Уэбб) [2014, Фэнтези, боевик, приключения, комикс, супергерой, BDremux, 1080p] BD3D TorrentFilm 34.18 GB
Фильмы 2009 года Адреналин 2: Высокое напряжение / Crank 2: High Voltage (Марк Невелдайн, Брайан Тейлор / Mark Neveldine, Brian Taylor) [2009, США, Боевик, триллер, криминал, BDRip-AVC] Dub + Sub Rus, Eng + Original... TorrentFilm 4 GB
Фильмы (DVD 5/9) Адреналин: Высокое напряжение / Crank: High Voltage (2009) DVD9 | D, A BOSS 6.07 GB
Фильмы (HD Rips | 720p, 1080p) Бродяга высокогорных равнин / High Plains Drifter (1973) BDRip [720p] [40th Anniversary Edition] sergej644 11.63 GB
Фильмы (HD Rips | 720p, 1080p) Возвращение высокого блондина / Le retour du grand blond (1974) BDRip [720p] sergej644 4.18 GB
Фильмы (HD DVD, Blu-ray и BDRemux) Возвращение высокого блондина / Le retour du grand blond / The Return of the Tall Blond Man with One Black Shoe (1974) BDRemux [1080p] sergej644 18.74 GB
Отечественные cериалы Высокие отношения [01-04 из 04] (2017) WEBRip BOSS 2.35 GB
Показать сообщения:    

Текущее время: Сегодня 12:28

Часовой пояс: GMT



Вы не можете начинать темы
Вы не можете отвечать на сообщения
Вы не можете редактировать свои сообщения
Вы не можете удалять свои сообщения
Вы не можете голосовать в опросах
Вы не можете прикреплять файлы к сообщениям
Вы не можете скачивать файлы