Вырой две могилы / Dig Two Graves (2014) WEB-DLRip 720p | L

 
Автор Сообщение

BOSS ®

Пол:

Стаж: 2 года 11 месяцев

Сообщений: 7139

Откуда: ODESSA



Награды: 20 (Подробнее)

Mega Seeder 1 (Количество: 1) Mega Releaser 2 (Количество: 1) Top Releaser 2 (Количество: 1)
Торрент-статистика

Создавать темы 08-Сен-2017 18:23

[Цитировать]

Информация о фильме
Название: Вырой две могилы
Оригинальное название: Dig Two Graves
Год выхода: 2014
Жанр: фэнтези, триллер, мистика, драма
Режиссер: Хантер Адамс
В ролях: Тед Левайн, Саманта Ислер, Дэнни Голдринг, Трой Раптэш, Рэйчел Драммонд, Дин Эванс, Брэдли Грант Смит, Одри Френсис
О фильме:
В 1947 году шериф и его помощник скинули с обрыва в воду два тела. 30 лет спустя на это же самое место пришли подростки брат с сестрой и решили спрыгнуть в озеро с высоты. Но в последний момент сестра струсила, и брат прыгнул один. И не вынырнул. Через некоторое время девушка встретит трёх странных мужчин, которые предложат вернуть брата из мира мёртвых, но попросят за это кое-что взамен.

Производство: США / PJ Fishwick, Claire Connelly, Jon Parker
Продолжительность: 01:25:24
Перевод: Любительский (многоголосый, закадровый) / Синема УС

Файл
Качество: WEB-DLRip 720p
Кодек: x264
Видео: 1280x536, 23.976 fps, ~3927 kbps avg, 0.239 bit/pixel
Звук: 48.0 kHz, AC3, 2 ch, 384 kbps
Субтитры: нет

MediaInfo

General
Complete name : Dig.Two.Graves.2014.P.WEB-DL.72Op_KOSHARA.mkv
Format : Matroska
Format version : Version 2
File size : 2.62 GiB
Duration : 1h 25mn
Overall bit rate : 4 398 Kbps
Encoded date : UTC 2017-03-30 17:25:40
Writing application : mkvmerge v8.3.0 ('Over the Horizon') 64bit
Writing library : libebml v1.3.1 + libmatroska v1.4.2
DURATION : 01:25:24.800000000
NUMBER_OF_FRAMES : 160150
NUMBER_OF_BYTES : 245990400
_STATISTICS_WRITING_APP : mkvmerge v8.3.0 ('Over the Horizon') 64bit
_STATISTICS_WRITING_DATE_UTC : 2017-03-30 17:25:40
_STATISTICS_TAGS : BPS DURATION NUMBER_OF_FRAMES NUMBER_OF_BYTES
Video
ID : 1
Format : AVC
Format/Info : Advanced Video Codec
Format profile : High@L3.1
Format settings, CABAC : Yes
Format settings, ReFrames : 6 frames
Codec ID : V_MPEG4/ISO/AVC
Duration : 1h 25mn
Bit rate mode : Variable
Bit rate : 3 927 Kbps
Maximum bit rate : 4 500 Kbps
Width : 1 280 pixels
Height : 536 pixels
Display aspect ratio : 2.40:1
Frame rate : 23.976 fps
Standard : Component
Color space : YUV
Chroma subsampling : 4:2:0
Bit depth : 8 bits
Scan type : Progressive
Bits/(Pixel*Frame) : 0.239
Stream size : 2.34 GiB (89%)
Color primaries : BT.709-5, BT.1361, IEC 61966-2-4, SMPTE RP177
Transfer characteristics : BT.709-5, BT.1361
Matrix coefficients : BT.709-5, BT.1361, IEC 61966-2-4 709, SMPTE RP177
Audio
ID : 2
Format : AC-3
Format/Info : Audio Coding 3
Mode extension : CM (complete main)
Codec ID : A_AC3
Duration : 1h 25mn
Bit rate mode : Constant
Bit rate : 384 Kbps
Channel(s) : 2 channels
Channel positions : Front: L R
Sampling rate : 48.0 KHz
Bit depth : 16 bits
Compression mode : Lossy
Stream size : 235 MiB (9%)

Скриншоты

[Профиль] [ЛС]
Кто просматривает тему:

Показать сообщения:    

Текущее время: Сегодня 17:25

Часовой пояс: GMT



Вы не можете начинать темы
Вы не можете отвечать на сообщения
Вы не можете редактировать свои сообщения
Вы не можете удалять свои сообщения
Вы не можете голосовать в опросах
Вы не можете прикреплять файлы к сообщениям
Вы не можете скачивать файлы