Выпускной (Всеволод Бродский) [2014, Россия, комедия, HDTV 1080i] + Original Rus

 
Автор Сообщение

TorrentFilm ®

Пол:

Стаж: 2 года

Сообщений: 7741



Награды: Нет

Торрент-статистика

Создавать темы 13-Июл-2015 00:06

[Цитировать]

Выпускной
Страна: Россия
Жанр: комедия
Год выпуска: 2014
Продолжительность: 01:32:11
Перевод: Не требуется
Cубтитры: нет
Оригинальная аудиодорожка: русский
Режиссер: Всеволод Бродский
В ролях: Виктор Грудев, Кристина Исайкина, Сергей Походаев, Сергей Бурунов, Евгения Лютая, Константин Еремеев, Олеся Поташинская, Никита Павленко, Яна Енжаева, Тимофей Зайцев.
Описание: Ученики 11 "А" готовятся к Выпускному по-разному: рэперы снимают клип к альбому, главный дебошир закупает алкоголь, девственник готовится к первому сексу, а влюбленный Ромео собирается надеть обручальное кольцо своей Джульетте. Они мечтают о будущем и строят планы на жизнь без опеки родителей. "Эту ночь ты не забудешь никогда!" - однозначный настрой одноклассников. Но у родителей свои взгляды на праздник -"вечеринка которую вы ждали 10 лет" становится настоящей войной поколений. Школа превращается в место боя - сегодня будут расставлены все точки над "и".
Сэмпл: http://multi-up.com/1057541
Тип релиза: HDTV 1080i
Контейнер: MKV
Видео: 1920 x 1080i (16:9) 25 fps, AVC Main@L4.0~ 7362 kbps, 0.142 bit/pixel
Аудио: AC-3, 6 канала, 48,0 КГц, ~448 kbps
Релиз :

M.I

Общее
Уникальный идентификатор : 239755319211618213505067300030009590150 (0xB45F31E2513909BF8DA6F43A5F7C4186)
Полное имя : D:\Выпускной\VIPUSKNOY.2014.HDTV.BLUEBIRD.mkv
Формат : Matroska
Версия формата : Version 4 / Version 2
Размер файла : 5,13 Гбайт
Продолжительность : 1 ч. 32 м.
Общий поток : 7969 Кбит/сек
Название фильма : BRH@BLUEBIRD
Дата кодирования : UTC 2015-07-07 13:14:32
Программа кодирования : mkvmerge v8.0.0 ('Til The Day That I Die') 64bit
Библиотека кодирования : libebml v1.3.1 + libmatroska v1.4.2
DURATION : 01:32:11.712000000
NUMBER_OF_FRAMES : 172865
NUMBER_OF_BYTES : 309774080
_STATISTICS_WRITING_APP : mkvmerge v8.0.0 ('Til The Day That I Die') 64bit
_STATISTICS_WRITING_DATE_UTC : 2015-07-07 13:14:32
_STATISTICS_TAGS : BPS DURATION NUMBER_OF_FRAMES NUMBER_OF_BYTES
Видео
Идентификатор : 1
Формат : AVC
Формат/Информация : Advanced Video Codec
Профиль формата : Main@L4.0
Параметр CABAC формата : Да
Параметр ReFrames формата : 4 кадра
Идентификатор кодека : V_MPEG4/ISO/AVC
Продолжительность : 1 ч. 32 м.
Битрейт : 7362 Кбит/сек
Ширина : 1920 пикселей
Высота : 1080 пикселей
Соотношение сторон : 16:9
Режим частоты кадров : Постоянный
Частота кадров : 25,000 кадров/сек
Стандарт вещания : Component
Цветовое пространство : YUV
Субдискретизация насыщенности : 4:2:0
Битовая глубина : 8 бит
Тип развёртки : Чересстрочная
Порядок развёртки : Верхнее поле первое
Бит/(Пиксели*Кадры) : 0.142
Размер потока : 4,74 Гбайт (92%)
Default : Да
Forced : Нет
Основные цвета : BT.709
Характеристики трансфера : BT.709
Коэффициенты матрицы : BT.709
colour_range : Limited
Аудио
Идентификатор : 2
Формат : AC-3
Формат/Информация : Audio Coding 3
Расширение режима : CM (complete main)
Параметр Endianness формата : Big
Идентификатор кодека : A_AC3
Продолжительность : 1 ч. 32 м.
Вид битрейта : Постоянный
Битрейт : 448 Кбит/сек
Каналы : 6 каналов
Расположение каналов : Front: L C R, Side: L R, LFE
Частота : 48,0 КГц
Битовая глубина : 16 бит
Метод сжатия : С потерями
Задержка видео : 111 мс.
Размер потока : 295 Мбайт (6%)
Язык : Russian
Default : Да
Forced : Нет

Скриншоты

[Профиль] [ЛС]
Кто просматривает тему:

Форум Тема Автор Размер
Pop ( Pop)VA - Солнечный музыкальный заряд. Зарубежный выпуск (2015) MP3 BOSS 670 MB
Cборники 70х-80х-90х (Ретро) (Eurodance, Dance, Disco) VA - Дискотека 80-90 годов по - новому (Зарубежный выпуск - 2) - 2014, MP3, 320 kbps Magnat 629 MB
Cборники 70х-80х-90х (Ретро) (Eurodance, Dance, Disco) VA - Дискотека 80-90 годов по - новому (Зарубежный выпуск - 5) - 2015, MP3, 320 kbps Magnat 699 MB
Cборники 70х-80х-90х (Ретро) (Eurodance, Dance, Disco) VA - Дискотека 80-90 годов по - новому (Зарубежный выпуск - 6) - 2015, MP3, 320 kbps Magnat 640 MB
Cборники 70х-80х-90х (Ретро) (Eurodance, Dance, Disco) VA - Дискотека 80-90 годов по - новому (Зарубежный выпуск - 7) - 2015, MP3, 320 kbps Magnat 688 MB
Cборники 70х-80х-90х (Ретро) (Eurodance, Dance, Disco) VA - Дискотека 80-90 годов по - новому (Зарубежный выпуск - 8) - 2015, MP3, 320 kbps Magnat 695 MB
Cборники 70х-80х-90х (Ретро) (Eurodance, Dance, Disco) VA - Дискотека 80-90 годов по - новому (Зарубежный выпуск - 9) - 2015, MP3, 320 kbps Magnat 680 MB
Pop (Pop) VA - Жаркая Летняя Дискотека Русский выпуск (2015) MP3 BOSS 716 MB
Показать сообщения:    

Текущее время: Сегодня 02:17

Часовой пояс: GMT



Вы не можете начинать темы
Вы не можете отвечать на сообщения
Вы не можете редактировать свои сообщения
Вы не можете удалять свои сообщения
Вы не можете голосовать в опросах
Вы не можете прикреплять файлы к сообщениям
Вы не можете скачивать файлы