Выпускники / Afterschool (Антонио Кампос / Antonio Campos) [2008, США, Драма, детектив, DVDRip] VO + Sub Rus + Original Eng

 
Автор Сообщение

painkiller ®

Стаж: 2 года 3 месяца

Сообщений: 582



Награды: Нет

Торрент-статистика

Создавать темы 15-Авг-2014 10:18

[Цитировать]

Выпускники / Afterschool
Страна: США
Жанр: Драма, детектив
Год выпуска: 2008
Продолжительность: 01:42:21
Перевод: Одноголосый закадровый
Cубтитры: Русские
Оригинальная аудиодорожка: Английский
Режиссер: Антонио Кампос / Antonio Campos
В ролях: Эзра Миллер, Джереми Аллен Уайт, Эмори Коэн, Майкл Стулбарг, Эддисон Тимлин, Дэвид Костабайл, Розмари ДеУитт, Дариуш М. Учковски, Гари Уилмс, Ли Уилкоф
Описание: Роберт является молодым американским студентом в элитной подготовительной школе Восточного побережья. Когда он случайно становится свидетелем ужаснейшей сцены смерти двух девушек, которую он запечатлел на камеру, Он счел необходимым увековечить их жизни в своем фильме, который казалось ему послужил бы выздоровлению атмосферы в школе. Но для некоторых это послужило лишь искрой для углубления травмы
Сэмпл: http://multi-up.com/950651
Качество видео: DVDRip
Формат видео: AVI
Видео: 640x272 (2.35:1), 25 fps, XviD build 50 ~807 kbps avg, 0.19 bit/pixel
Аудио 1: 48 kHz, MPEG Layer 3, 2 ch, ~128.00 kbps avg(Русский)
Аудио 2: 48 kHz, MPEG Layer 3, 2 ch, ~130.94 kbps avg(Английский)
Формат субтитров: softsub (SRT)

MediaInfo

Общее
Полное имя : F:\С моей озвучкой\Выпускники\Afterschool.avi
Формат : AVI
Формат/Информация : Audio Video Interleave
Размер файла : 795 Мбайт
Продолжительность : 1 ч. 42 м.
Режим общего битрейта : Переменный
Общий поток : 1085 Кбит/сек
Программа кодирования : VirtualDubModRus 1.5.10.2 (build 2542/release)
Библиотека кодирования : VirtualDubMod build 2542/release
Видео
Идентификатор : 0
Формат : MPEG-4 Visual
Профиль формата : Advanced Simple@L5
Параметр BVOP формата : Нет
Параметр QPel формата : Нет
Параметр GMC формата : Без точки перехода
Параметр матрицы формата : Default (MPEG)
Идентификатор кодека : XVID
Идентификатор кодека/Подсказка : XviD
Продолжительность : 1 ч. 42 м.
Битрейт : 809 Кбит/сек
Ширина : 640 пикселей
Высота : 272 пикселя
Соотношение сторон : 2,35:1
Частота кадров : 25,000 кадров/сек
Цветовое пространство : YUV
Субдискретизация насыщенности : 4:2:0
Битовая глубина : 8 бит
Тип развёртки : Прогрессивная
Метод сжатия : С потерями
Бит/(Пиксели*Кадры) : 0.186
Размер потока : 592 Мбайт (75%)
Библиотека кодирования : XviD 1.2.1 (UTC 2008-12-04)
Аудио #1
Идентификатор : 1
Формат : MPEG Audio
Версия формата : Version 1
Профиль формата : Layer 3
Режим : Joint stereo
Расширение режима : MS Stereo
Идентификатор кодека : 55
Идентификатор кодека/Подсказка : MP3
Продолжительность : 1 ч. 42 м.
Вид битрейта : Постоянный
Битрейт : 128 Кбит/сек
Каналы : 2 канала
Частота : 48,0 КГц
Метод сжатия : С потерями
Размер потока : 93,7 Мбайт (12%)
Выравнивание : Соединение по промежуткам
Продолжительность промежутка : 40 мс. (1,00 видеокадр)
Время предзагрузки промежутка : 504 мс.
Библиотека кодирования : LAME3.98
Аудио #2
Идентификатор : 2
Формат : MPEG Audio
Версия формата : Version 1
Профиль формата : Layer 3
Режим : Joint stereo
Идентификатор кодека : 55
Идентификатор кодека/Подсказка : MP3
Продолжительность : 1 ч. 42 м.
Вид битрейта : Переменный
Битрейт : 128 Кбит/сек
Каналы : 2 канала
Частота : 48,0 КГц
Метод сжатия : С потерями
Размер потока : 95,9 Мбайт (12%)
Выравнивание : Соединение по промежуткам
Продолжительность промежутка : 24 мс. (0,60 видеокадр)
Время предзагрузки промежутка : 140 мс.
Библиотека кодирования : LAME3.90.
Настройки программы : -m j -V 4 -q 2 -lowpass 17.6 --abr 128

Скриншоты

[Профиль] [ЛС]

Создавать темы 06-Авг-2015 23:10 (спустя 11 месяцев 22 дня)

Топик был перенесен из форума Фильмы до 2014 года в форум Фильмы до 2012 года
sergej644
 

Создавать темы 12-Июн-2016 08:51 (спустя 1 год 9 месяцев)

Топик был перенесен из форума Фильмы 2011 года в форум Фильмы 2006-2008 года
Russian Mafia
 
Кто просматривает тему:

Форум Тема Автор Размер
Pop ( Pop)VA - Солнечный музыкальный заряд. Зарубежный выпуск (2015) MP3 BOSS 670 MB
Cборники 70х-80х-90х (Ретро) (Eurodance, Dance, Disco) VA - Дискотека 80-90 годов по - новому (Зарубежный выпуск - 2) - 2014, MP3, 320 kbps Magnat 629 MB
Cборники 70х-80х-90х (Ретро) (Eurodance, Dance, Disco) VA - Дискотека 80-90 годов по - новому (Зарубежный выпуск - 5) - 2015, MP3, 320 kbps Magnat 699 MB
Cборники 70х-80х-90х (Ретро) (Eurodance, Dance, Disco) VA - Дискотека 80-90 годов по - новому (Зарубежный выпуск - 6) - 2015, MP3, 320 kbps Magnat 640 MB
Cборники 70х-80х-90х (Ретро) (Eurodance, Dance, Disco) VA - Дискотека 80-90 годов по - новому (Зарубежный выпуск - 7) - 2015, MP3, 320 kbps Magnat 688 MB
Cборники 70х-80х-90х (Ретро) (Eurodance, Dance, Disco) VA - Дискотека 80-90 годов по - новому (Зарубежный выпуск - 8) - 2015, MP3, 320 kbps Magnat 695 MB
Cборники 70х-80х-90х (Ретро) (Eurodance, Dance, Disco) VA - Дискотека 80-90 годов по - новому (Зарубежный выпуск - 9) - 2015, MP3, 320 kbps Magnat 680 MB
Pop (Pop) VA - Жаркая Летняя Дискотека Русский выпуск (2015) MP3 BOSS 716 MB
Показать сообщения:    

Текущее время: Сегодня 02:41

Часовой пояс: GMT



Вы не можете начинать темы
Вы не можете отвечать на сообщения
Вы не можете редактировать свои сообщения
Вы не можете удалять свои сообщения
Вы не можете голосовать в опросах
Вы не можете прикреплять файлы к сообщениям
Вы не можете скачивать файлы