Вымирание / Extinction (2015) BDRip 1080p | iTunes

 
Автор Сообщение

BOSS ®

Пол:

Стаж: 2 года 1 месяц

Сообщений: 3718

Откуда: ODESSA



Награды: 20 (Подробнее)

Top Seeder 3 (Количество: 1) Top Keeper 4 (Количество: 1) Top Seeder 4 (Количество: 1)
Торрент-статистика

Создавать темы 05-Дек-2015 09:46

[Цитировать]

Информация о фильме
Название: Вымирание
Оригинальное название: Extinction
Год выхода: 2015
Жанр: Ужасы, фантастика, драма
Режиссер: Мигель Анхель Вивас
В ролях: Мэттью Фокс, Джеффри Донован, Куинн Маккоулган, Валерия Веро, Клара Лаго, Мэтт Девере, Алекс Хафнер, Джереми Вилер
О фильме:
После нескольких сотен тысяч лет эволюции и превосходства, люди были почти уничтожены с лица Земли. В течение всего лишь нескольких дней инфекция превратила их в диких существ без интеллекта, они стали злыми и безжалостными. Через семь лет после этого, мы находим небольшой городок — Harmony, покрытый многолетними снегами. Двое мужчин, давние друзья Патрик и Джек, и дочь Джека, Лу, — единственные оставшиеся в живых. Тем не менее, они не общаются или даже не признают друг друга. Что-то ужасное произошло между ними и глубокая неумолимая ненависть прекратила их дружбу давным-давно.

Страна: Испания, США, Венгрия, Франция
Студия: La Ferme! Productions, Laokoon Filmgroup, Ombra Films
Продолжительность: 01:52:45
Перевод: Профессиональный (многоголосый) | iTunes
Файл
Кодек: h.264
Качество: BDRip 1080p
Видео: 1920x808 пикселей, 10200 Кбит/с, 23.976 кадра(ов)/сек
Звук:
Audio #1: Русский, AC-3, 5.1 канала(ов), 384 кбит/с, 48.0 кГц
Audio #2: Английский, AC-3, 5.1 канала(ов), 448 кбит/с, 48.0 кГц
Семпл

Media Info

Format : Matroska
Format version : Version 2
File size : 8.46 GiB
Duration : 1h 52mn
Overall bit rate : 10.7 Mbps
Movie name : EVO
Encoded date : UTC 2015-12-04 13:24:03
Writing application : mkvmerge v8.3.0 ('Over the Horizon') 64bit
Writing library : libebml v1.3.1 + libmatroska v1.4.2
Video
ID : 1
Format : AVC
Format/Info : Advanced Video Codec
Format profile : High@L4.1
Format settings, CABAC : Yes
Format settings, ReFrames : 4 frames
Codec ID : V_MPEG4/ISO/AVC
Duration : 1h 52mn
Bit rate : 10.2 Mbps
Width : 1 920 pixels
Height : 808 pixels
Display aspect ratio : 2.40:1
Frame rate mode : Constant
Frame rate : 24.000 fps
Color space : YUV
Chroma subsampling : 4:2:0
Bit depth : 8 bits
Scan type : Progressive
Bits/(Pixel*Frame) : 0.274
Stream size : 7.81 GiB (92%)
Writing library : x264 core 142 r2479 dd79a61
Encoding settings : cabac=1 / ref=8 / deblock=1:-2:-2 / analyse=0x3:0x133 / me=umh / subme=11 / psy=1 / psy_rd=0.98:0.03 / mixed_ref=1 / me_range=48 / chroma_me=1 / trellis=2 / 8x8dct=1 / cqm=0 / deadzone=21,11 / fast_pskip=0 / chroma_qp_offset=-3 / threads=3 / lookahead_threads=1 / sliced_threads=0 / nr=0 / decimate=0 / interlaced=0 / bluray_compat=0 / constrained_intra=0 / bframes=12 / b_pyramid=2 / b_adapt=2 / b_bias=0 / direct=3 / weightb=1 / open_gop=0 / weightp=2 / keyint=240 / keyint_min=22 / scenecut=40 / intra_refresh=0 / rc_lookahead=80 / rc=2pass / mbtree=0 / bitrate=5946 / ratetol=1.0 / qcomp=0.80 / qpmin=0 / qpmax=69 / qpstep=4 / cplxblur=20.0 / qblur=0.5 / vbv_maxrate=62500 / vbv_bufsize=50000 / nal_hrd=none / filler=0 / ip_ratio=1.30 / pb_ratio=1.20 / aq=2:1.00
Default : Yes
Forced : No
Color range : Limited
Color primaries : BT.709
Transfer characteristics : BT.709
Matrix coefficients : BT.709
Audio #1
ID : 2
Format : AC-3
Format/Info : Audio Coding 3
Mode extension : CM (complete main)
Format settings, Endianness : Big
Codec ID : A_AC3
Duration : 1h 52mn
Bit rate mode : Constant
Bit rate : 384 Kbps
Channel(s) : 6 channels
Channel positions : Front: L C R, Side: L R, LFE
Sampling rate : 48.0 KHz
Frame rate : 31.250 fps (1536 spf)
Compression mode : Lossy
Delay relative to video : -83ms
Stream size : 310 MiB (4%)
Language : Russian
Default : Yes
Forced : No
Audio #2
ID : 3
Format : AC-3
Format/Info : Audio Coding 3
Mode extension : CM (complete main)
Format settings, Endianness : Big
Codec ID : A_AC3
Duration : 1h 52mn
Bit rate mode : Constant
Bit rate : 448 Kbps
Channel(s) : 6 channels
Channel positions : Front: L C R, Side: L R, LFE
Sampling rate : 48.0 KHz
Frame rate : 31.250 fps (1536 spf)
Compression mode : Lossy
Delay relative to video : -83ms
Stream size : 362 MiB (4%)
Default : No
Forced : No

Скриншоты

[Профиль] [ЛС]
Кто просматривает тему:

Форум Тема Автор Размер
Фильмы (HD Rips | 720p, 1080p) Вымирание / Extinction (2015) WEB-DL 720p | iTunes достали все 3.73 GB
Фильмы 2015 года Вымирание / Extinction (2015) WEB-DLRip | iTunes достали все 2.05 GB
Фильмы 2015 года Вымирание / Extinction (Мигель Анхель Вивас / Miguel Ángel Vivas) [2015, Испания, США, Венгрия, Франция, ужасы, фантастика, драма, BDRip-AVC] MVO + Original (Eng) + Sub (Rus, Ukr, Eng) TorrentFilm 2.13 GB
Фильмы 2015 года Вымирание / Extinction (Мигель Анхель Вивас / Miguel Ángel Vivas) [2015, Испания, США, Венгрия, Франция, ужасы, фантастика, драма, BDRip-AVC] MVO + Sub (Rus, Eng) TorrentFilm 1.4 GB
Фильмы 2015 года Вымирание / Extinction (Мигель Анхель Вивас / Miguel Ángel Vivas) [2015, Испания, США, Венгрия, Франция, Ужасы, фантастика, драма, HDRip] MVO (iTunes) TorrentFilm 746 MB
Фильмы 2015 года Вымирание / Extinction (Мигель Анхель Вивас / Miguel Ángel Vivas) [2015, Испания, Франция, США, Венгрия, ужасы, фантастика, драма, WEB-DLRip] MVO (iTunes) TorrentFilm 1.46 GB
Фильмы 2015 года Вымирание / Extinction (Мигель Анхель Вивас / Miguel Ángel Vivas) [2015, Испания, Франция, США, Венгрия, ужасы, фантастика, драма, WEB-DLRip] MVO (iTunes) + Original Eng TorrentFilm 2.05 GB
Фильмы 2015 года Вымирание / Добро пожаловать в гармонию / Extinction (Мигель Анхель Вивас / Miguel Ángel Vivas) [2015, Испания, Франция, США, Венгрия, ужасы, фантастика, драма, WEB-DLRip] DVO (2D) TorrentFilm 1.44 GB
Показать сообщения:    

Текущее время: Сегодня 16:37

Часовой пояс: GMT



Вы не можете начинать темы
Вы не можете отвечать на сообщения
Вы не можете редактировать свои сообщения
Вы не можете удалять свои сообщения
Вы не можете голосовать в опросах
Вы не можете прикреплять файлы к сообщениям
Вы не можете скачивать файлы