Вымирание / Extinction (Мигель Анхель Вивас / Miguel Ángel Vivas) [2015, Испания, Франция, США, Венгрия, ужасы, фантастика, драма, WEB-DLRip] MVO (iTunes)

 
Автор Сообщение

TorrentFilm ®

Пол:

Стаж: 2 года

Сообщений: 7741



Награды: Нет

Торрент-статистика

Создавать темы 09-Сен-2015 00:09

[Цитировать]

Вымирание / Extinction

«They are the last»
-Страна: Испания, Франция, США, Венгрия
Жанр: ужасы, фантастика, драма
Год выпуска: 2015
Продолжительность: 01:52:44
Перевод: Профессиональный (многоголосый закадровый) - | iTunes |
Cубтитры: нет
Оригинальная аудиодорожка: нет-Режиссер: Мигель Анхель Вивас / Miguel Ángel Vivas-В ролях: Мэттью Фокс, Джеффри Донован, Куинн Маккоулган, Валерия Веро, Клара Лаго, Мэтт Девере, Алекс Хафнер, Джереми Вилер...-Описание: После нескольких сотен тысяч лет эволюции и превосходства, люди были почти уничтожены с лица Земли. В течение всего лишь нескольких дней инфекция превратила их в диких существ без интеллекта, они стали злыми и безжалостными. Через семь лет после этого, мы находим небольшой городок — Harmony, покрытый многолетними снегами. Двое мужчин, давние друзья Патрик и Джек, и дочь Джека, Лу, — единственные оставшиеся в живых. Тем не менее, они не общаются или даже не признают друг друга. Что-то ужасное произошло между ними и глубокая неумолимая ненависть прекратила их дружбу давным-давно.- -Качество видео: WEB-DLRip | WEB-DL 720p |
Формат видео: AVI
Видео: 720x304, 23.976 fps, XviD build 73 ~1458 kbps avg, 0.280 bit/pixel
Аудио: 48 kHz, AC3 Dolby Digital, 3/2 (L,C,R,l,r) + LFE ch, ~384.00 kbps
-

Дополнительно о фильме:

Производство, студия дубляжа, прокат:

MediaInfo

General
Complete name : Extinction.BDRip.By_Flash.avi
Format : AVI
Format/Info : Audio Video Interleave
File size : 1.46 GiB
Duration : 1h 52mn
Overall bit rate : 1 851 Kbps
Writing application : VirtualDubMod 1.5.10.3 | www.virtualdub-fr.org || (build 2550/release)
Writing library : VirtualDubMod build 2550/release
Video
ID : 0
Format : MPEG-4 Visual
Format profile : Advanced Simple@L5
Format settings, BVOP : 1
Format settings, QPel : No
Format settings, GMC : No warppoints
Format settings, Matrix : Custom
Codec ID : XVID
Codec ID/Hint : XviD
Duration : 1h 52mn
Bit rate : 1 458 Kbps
Width : 720 pixels
Height : 304 pixels
Display aspect ratio : 2.35:1
Frame rate : 23.976 fps
Color space : YUV
Chroma subsampling : 4:2:0
Bit depth : 8 bits
Scan type : Progressive
Compression mode : Lossy
Bits/(Pixel*Frame) : 0.278
Stream size : 1.15 GiB (79%)
Writing library : XviD 73
Audio
ID : 1
Format : AC-3
Format/Info : Audio Coding 3
Mode extension : CM (complete main)
Format settings, Endianness : Big
Codec ID : 2000
Duration : 1h 52mn
Bit rate mode : Constant
Bit rate : 384 Kbps
Channel(s) : 6 channels
Channel positions : Front: L C R, Side: L R, LFE
Sampling rate : 48.0 KHz
Bit depth : 16 bits
Compression mode : Lossy
Stream size : 310 MiB (21%)
Alignment : Split accross interleaves
Interleave, duration : 42 ms (1.00 video frame)
Interleave, preload duration : 500 ms

Скриншот c названием фильма

Скриншоты

[Профиль] [ЛС]
Кто просматривает тему:

Форум Тема Автор Размер
Фильмы (HD Rips | 720p, 1080p) Вымирание / Extinction (2015) BDRip 1080p | iTunes BOSS 8.46 GB
Фильмы (HD Rips | 720p, 1080p) Вымирание / Extinction (2015) WEB-DL 720p | iTunes достали все 3.73 GB
Фильмы 2015 года Вымирание / Extinction (2015) WEB-DLRip | iTunes достали все 2.05 GB
Фильмы 2015 года Вымирание / Extinction (Мигель Анхель Вивас / Miguel Ángel Vivas) [2015, Испания, США, Венгрия, Франция, ужасы, фантастика, драма, BDRip-AVC] MVO + Original (Eng) + Sub (Rus, Ukr, Eng) TorrentFilm 2.13 GB
Фильмы 2015 года Вымирание / Extinction (Мигель Анхель Вивас / Miguel Ángel Vivas) [2015, Испания, США, Венгрия, Франция, ужасы, фантастика, драма, BDRip-AVC] MVO + Sub (Rus, Eng) TorrentFilm 1.4 GB
Фильмы 2015 года Вымирание / Extinction (Мигель Анхель Вивас / Miguel Ángel Vivas) [2015, Испания, США, Венгрия, Франция, Ужасы, фантастика, драма, HDRip] MVO (iTunes) TorrentFilm 746 MB
Фильмы 2015 года Вымирание / Extinction (Мигель Анхель Вивас / Miguel Ángel Vivas) [2015, Испания, Франция, США, Венгрия, ужасы, фантастика, драма, WEB-DLRip] MVO (iTunes) + Original Eng TorrentFilm 2.05 GB
Фильмы 2015 года Вымирание / Добро пожаловать в гармонию / Extinction (Мигель Анхель Вивас / Miguel Ángel Vivas) [2015, Испания, Франция, США, Венгрия, ужасы, фантастика, драма, WEB-DLRip] DVO (2D) TorrentFilm 1.44 GB
Показать сообщения:    

Текущее время: Сегодня 16:52

Часовой пояс: GMT



Вы не можете начинать темы
Вы не можете отвечать на сообщения
Вы не можете редактировать свои сообщения
Вы не можете удалять свои сообщения
Вы не можете голосовать в опросах
Вы не можете прикреплять файлы к сообщениям
Вы не можете скачивать файлы