Вымирание / Extinction (2015) WEB-DL 720p | iTunes

 
Автор Сообщение

достали все ®

Пол:

Стаж: 1 год 8 месяцев

Сообщений: 6559



Награды: 12 (Подробнее)

Mega Releaser 3 (Количество: 1) Mega Seeder 5 (Количество: 1) Top Releaser 2 (Количество: 1)
Торрент-статистика

Создавать темы 06-Сен-2015 21:54

[Цитировать]

Информация о фильме
Название: Вымирание
Оригинальное название: Extinction
Год выхода: 2015
Жанр: ужасы, фантастика, драма
Режиссер: Мигель Анхель Вивас
В ролях: Мэттью Фокс, Джеффри Донован, Куинн Маккоулган, Валерия Веро, Клара Лаго, Мэтт Девере, Алекс Хафнер, Джереми Вилер
О фильме: После нескольких сотен тысяч лет эволюции и превосходства, люди были почти уничтожены с лица Земли. В течение всего лишь нескольких дней инфекция превратила их в диких существ без интеллекта, они стали злыми и безжалостными. Через семь лет после этого, мы находим небольшой городок — Harmony, покрытый многолетними снегами. Двое мужчин, давние друзья Патрик и Джек, и дочь Джека, Лу, — единственные оставшиеся в живых. Тем не менее, они не общаются или даже не признают друг друга. Что-то ужасное произошло между ними и глубокая неумолимая ненависть прекратила их дружбу давным-давно.

Выпущено: Испания, Франция, США, Венгрия / La Ferme! Productions, Laokoon Filmgroup, Ombra Films, Telefonica Studios, Vaca Films
Продолжительность: 01:52:44
Озвучивание: Профессиональное (многоголосое) [iTunes]
Файл
Формат: MKV
Качество: WEB-DL 720p
Видео: 3868 kb/s, 1280x532
Аудио: Russian / English: AC3, 384 kb/s (6 ch)
Субтитры: English

MI

Format : Matroska
Format version : Version 2
File size : 3.73 GiB
Duration : 1h 52mn
Overall bit rate : 4 730 Kbps
Encoded date : UTC 2015-09-06 19:02:11
Writing application : mkvmerge v8.3.0 ('Over the Horizon') 64bit
Writing library : libebml v1.3.1 + libmatroska v1.4.2
DURATION : 01:52:44.736000000
NUMBER_OF_FRAMES : 211398
NUMBER_OF_BYTES : 324707328
_STATISTICS_WRITING_APP : mkvmerge v8.3.0 ('Over the Horizon') 64bit
_STATISTICS_WRITING_DATE_UTC : 2015-09-06 19:02:11
_STATISTICS_TAGS : BPS DURATION NUMBER_OF_FRAMES NUMBER_OF_BYTES
Video
ID : 1
Format : AVC
Format/Info : Advanced Video Codec
Format profile : Main@L3.1
Format settings, CABAC : No
Format settings, ReFrames : 2 frames
Codec ID : V_MPEG4/ISO/AVC
Duration : 1h 52mn
Bit rate : 3 868 Kbps
Width : 1 280 pixels
Height : 532 pixels
Display aspect ratio : 2.40:1
Frame rate mode : Constant
Frame rate : 23.976 fps
Color space : YUV
Chroma subsampling : 4:2:0
Bit depth : 8 bits
Scan type : Progressive
Bits/(Pixel*Frame) : 0.237
Stream size : 3.05 GiB (82%)
Language : English
Default : Yes
Forced : No
Color range : Limited
Color primaries : BT.709
Transfer characteristics : BT.709
Matrix coefficients : BT.709
Audio #1
ID : 2
Format : AC-3
Format/Info : Audio Coding 3
Mode extension : CM (complete main)
Format settings, Endianness : Big
Codec ID : A_AC3
Duration : 1h 52mn
Bit rate mode : Constant
Bit rate : 384 Kbps
Channel(s) : 6 channels
Channel positions : Front: L C R, Side: L R, LFE
Sampling rate : 48.0 KHz
Bit depth : 16 bits
Compression mode : Lossy
Stream size : 310 MiB (8%)
Language : Russian
Default : Yes
Forced : No
Audio #2
ID : 3
Format : AC-3
Format/Info : Audio Coding 3
Mode extension : CM (complete main)
Format settings, Endianness : Big
Codec ID : A_AC3
Duration : 1h 52mn
Bit rate mode : Constant
Bit rate : 384 Kbps
Channel(s) : 6 channels
Channel positions : Front: L C R, Side: L R, LFE
Sampling rate : 48.0 KHz
Bit depth : 16 bits
Compression mode : Lossy
Stream size : 310 MiB (8%)
Language : English
Default : No
Forced : No
Text
ID : 4
Format : UTF-8
Codec ID : S_TEXT/UTF8
Codec ID/Info : UTF-8 Plain Text
Language : English
Default : No
Forced : No
Menu
00:00:00.000 : en:1
00:09:59.000 : en:2
00:15:43.000 : en:3
00:21:53.000 : en:4
00:27:33.000 : en:5
00:32:57.000 : en:6
00:38:44.000 : en:7
00:44:31.000 : en:8
00:49:41.000 : en:9
00:56:19.000 : en:10
01:03:04.000 : en:11
01:09:58.000 : en:12
01:17:03.000 : en:13
01:25:41.000 : en:14
01:35:25.000 : en:15
01:44:46.000 : en:16

Скриншоты



[Профиль] [ЛС]
Кто просматривает тему:

Форум Тема Автор Размер
Фильмы (HD Rips | 720p, 1080p) Вымирание / Extinction (2015) BDRip 1080p | iTunes BOSS 8.46 GB
Фильмы 2015 года Вымирание / Extinction (2015) WEB-DLRip | iTunes достали все 2.05 GB
Фильмы 2015 года Вымирание / Extinction (Мигель Анхель Вивас / Miguel Ángel Vivas) [2015, Испания, США, Венгрия, Франция, ужасы, фантастика, драма, BDRip-AVC] MVO + Original (Eng) + Sub (Rus, Ukr, Eng) TorrentFilm 2.13 GB
Фильмы 2015 года Вымирание / Extinction (Мигель Анхель Вивас / Miguel Ángel Vivas) [2015, Испания, США, Венгрия, Франция, ужасы, фантастика, драма, BDRip-AVC] MVO + Sub (Rus, Eng) TorrentFilm 1.4 GB
Фильмы 2015 года Вымирание / Extinction (Мигель Анхель Вивас / Miguel Ángel Vivas) [2015, Испания, США, Венгрия, Франция, Ужасы, фантастика, драма, HDRip] MVO (iTunes) TorrentFilm 746 MB
Фильмы 2015 года Вымирание / Extinction (Мигель Анхель Вивас / Miguel Ángel Vivas) [2015, Испания, Франция, США, Венгрия, ужасы, фантастика, драма, WEB-DLRip] MVO (iTunes) TorrentFilm 1.46 GB
Фильмы 2015 года Вымирание / Extinction (Мигель Анхель Вивас / Miguel Ángel Vivas) [2015, Испания, Франция, США, Венгрия, ужасы, фантастика, драма, WEB-DLRip] MVO (iTunes) + Original Eng TorrentFilm 2.05 GB
Фильмы 2015 года Вымирание / Добро пожаловать в гармонию / Extinction (Мигель Анхель Вивас / Miguel Ángel Vivas) [2015, Испания, Франция, США, Венгрия, ужасы, фантастика, драма, WEB-DLRip] DVO (2D) TorrentFilm 1.44 GB
Показать сообщения:    

Текущее время: Сегодня 06:05

Часовой пояс: GMT



Вы не можете начинать темы
Вы не можете отвечать на сообщения
Вы не можете редактировать свои сообщения
Вы не можете удалять свои сообщения
Вы не можете голосовать в опросах
Вы не можете прикреплять файлы к сообщениям
Вы не можете скачивать файлы