Вымирание / Добро пожаловать в гармонию / Extinction (Мигель Анхель Вивас / Miguel Ángel Vivas) [2015, Испания, Франция, США, Венгрия, ужасы, фантастика, драма, WEB-DLRip] DVO (2D)

 
Автор Сообщение

TorrentFilm ®

Пол:

Стаж: 2 года

Сообщений: 7741



Награды: Нет

Торрент-статистика

Создавать темы 12-Авг-2015 00:06

[Цитировать]

Вымирание / Добро пожаловать в гармонию / Extinction
Страна: Испания, Франция, США, Венгрия
Жанр: ужасы, фантастика, драма
Год выпуска: 2015
Продолжительность: 01:52:43
Перевод: Любительский (двухголосый закадровый) 2D
Cубтитры: нет
Оригинальная аудиодорожка: нет
Режиссер: Мигель Анхель Вивас / Miguel Ángel Vivas
В ролях: Мэттью Фокс, Джеффри Донован, Куинн Маккоулган, Валерия Веро, Клара Лаго
Описание: После нескольких сотен тысяч лет эволюции и превосходства, люди были почти уничтожены с лица Земли. В течение всего лишь нескольких дней инфекция превратила их в диких существ без интеллекта, они стали злыми и безжалостными. Через семь лет после этого, мы находим небольшой городок — Harmony, покрытый многолетними снегами. Двое мужчин, давние друзья Патрик и Джек, и дочь Джека, Лу, — единственные оставшиеся в живых. Тем не менее, они не общаются или даже не признают друг друга. Что-то ужасное произошло между ними и глубокая неумолимая ненависть прекратила их дружбу давным-давно.
Доп. информация:
Перевод: Сергей Скворцов
Сэмпл: http://multi-up.com/1061236
Качество видео: WEB-DLRip
Формат видео: AVI
Видео: DivX 5 720x304 23.976fps 1368Kbps
Аудио: Dolby AC3 48000Hz 6 Audio Channel 448Kbps

MediaInfo

General
Complete name : D:\TORRENTS\Вымирание.DVO.avi
Format : AVI
Format/Info : Audio Video Interleave
File size : 1.44 GiB
Duration : 1h 52mn
Overall bit rate : 1 826 Kbps
Video
ID : 0
Format : MPEG-4 Visual
Format profile : Advanced Simple@L5
Format settings, BVOP : 2
Format settings, QPel : No
Format settings, GMC : No warppoints
Format settings, Matrix : Default (H.263)
Codec ID : DX50
Codec ID/Hint : DivX 5
Duration : 1h 52mn
Bit rate : 1 368 Kbps
Width : 720 pixels
Height : 304 pixels
Display aspect ratio : 2.35:1
Frame rate : 23.976 fps
Color space : YUV
Chroma subsampling : 4:2:0
Bit depth : 8 bits
Scan type : Progressive
Compression mode : Lossy
Bits/(Pixel*Frame) : 0.261
Stream size : 1.08 GiB (75%)
Writing library : XviD 66
Audio
ID : 1
Format : AC-3
Format/Info : Audio Coding 3
Mode extension : CM (complete main)
Format settings, Endianness : Big
Codec ID : 2000
Duration : 1h 52mn
Source duration : 1h 52mn
Bit rate mode : Constant
Bit rate : 448 Kbps
Channel(s) : 6 channels
Channel positions : Front: L C R, Side: L R, LFE
Sampling rate : 48.0 KHz
Bit depth : 16 bits
Compression mode : Lossy
Stream size : 361 MiB (25%)
Alignment : Aligned on interleaves
Interleave, duration : 42 ms (1.00 video frame)

Скриншот c названием фильма

Скриншоты

[Профиль] [ЛС]
Кто просматривает тему:

Форум Тема Автор Размер
Фильмы (HD Rips | 720p, 1080p) Вымирание / Extinction (2015) BDRip 1080p | iTunes BOSS 8.46 GB
Фильмы (HD Rips | 720p, 1080p) Вымирание / Extinction (2015) WEB-DL 720p | iTunes достали все 3.73 GB
Фильмы 2015 года Вымирание / Extinction (2015) WEB-DLRip | iTunes достали все 2.05 GB
Фильмы 2015 года Вымирание / Extinction (Мигель Анхель Вивас / Miguel Ángel Vivas) [2015, Испания, США, Венгрия, Франция, ужасы, фантастика, драма, BDRip-AVC] MVO + Original (Eng) + Sub (Rus, Ukr, Eng) TorrentFilm 2.13 GB
Фильмы 2015 года Вымирание / Extinction (Мигель Анхель Вивас / Miguel Ángel Vivas) [2015, Испания, США, Венгрия, Франция, ужасы, фантастика, драма, BDRip-AVC] MVO + Sub (Rus, Eng) TorrentFilm 1.4 GB
Фильмы 2015 года Вымирание / Extinction (Мигель Анхель Вивас / Miguel Ángel Vivas) [2015, Испания, США, Венгрия, Франция, Ужасы, фантастика, драма, HDRip] MVO (iTunes) TorrentFilm 746 MB
Фильмы 2015 года Вымирание / Extinction (Мигель Анхель Вивас / Miguel Ángel Vivas) [2015, Испания, Франция, США, Венгрия, ужасы, фантастика, драма, WEB-DLRip] MVO (iTunes) TorrentFilm 1.46 GB
Фильмы 2015 года Вымирание / Extinction (Мигель Анхель Вивас / Miguel Ángel Vivas) [2015, Испания, Франция, США, Венгрия, ужасы, фантастика, драма, WEB-DLRip] MVO (iTunes) + Original Eng TorrentFilm 2.05 GB
Показать сообщения:    

Текущее время: Сегодня 02:15

Часовой пояс: GMT



Вы не можете начинать темы
Вы не можете отвечать на сообщения
Вы не можете редактировать свои сообщения
Вы не можете удалять свои сообщения
Вы не можете голосовать в опросах
Вы не можете прикреплять файлы к сообщениям
Вы не можете скачивать файлы