Выкуп / The Terrorists / Ransom (1974) BDRip 720p от 0ptimus | P2

 
Автор Сообщение

Белочка ®

Пол:

Стаж: 5 лет 1 месяц

Сообщений: 2089



Награды: 1 (Подробнее)

Girls (Количество: 1)
Торрент-статистика

Создавать темы 14-Окт-2014 18:47

[Цитировать]

Выкуп
| The Terrorists / Ransom |
Информация о фильме
Название: Выкуп
Оригинальное название: Ransom / The Terrorists
Год выхода: 1974
Жанр: Триллер, драма, криминал
Режиссер: Каспар Вреде
В ролях: Шон Коннери, Иэн МакШейн, Джефри Уикэм, Изабель Дин, Джон Квентин, Роберт Харрис, Джеймс Максвелл, Уильям Фокс, Гарри Лэндис, Норман Бристоу, Джон Кординг, Кристофер Эллисон, Ричард Хэмптон, Престон Локвуд, Карен Максвелл, Колин Проктер, Малкольм Ренни, Кнут Уигерт, Кнут М. Ханссон, Альф Малланд, Свен Он, Пер Тофте, Каре Виклунд
О фильме:
Мартин Шеперд со своими сообщниками проникает в резиденцию посольства Великобритании и берет в заложники персонал. Бандиты требуют освободить из английских тюрем своих товарищей. В это время в аэропорту отряд террористов под командованием Рэя Петри захватывает в воздухе авиалайнер с пассажирами, чтобы вылететь из страны, взяв на борт бывших заключенных. Однако при посадке самолет терпит аварию. Преступники вынуждены ждать окончания ремонта. Теперь время работает против них. Тем более, что за переговоры с ними берется полковник Нильс Тальвик.

Страна: Великобритания
Студия: 20th Century Fox Film Corporation, Lion International, Rwaley Film & Theatre
Продолжительность: 01:28:45
Перевод: Профессиональный двухголосый
Файл
Кодек: h264
Качество: BDRip (720p)
Видео: MPEG-4 AVC, 4300 Кбит/с, 1200x720, 23.976 кадр/с
Звук:
• №1: Русский (AC3, 2 ch, 192 Кбит/с) Профессиональный двухголосый [ОРТ]
• №2: Английский (AC3, 6 ch, 640 Кбит/с)
Субтитры: Английские

MediaInfo

------------------------------------------------------------------------
x264 [info]: frame I:937 Avg QP:15.95 size:141300
x264 [info]: frame P:27110 Avg QP:18.66 size: 51249
x264 [info]: frame B:99632 Avg QP:20.12 size: 13447
------------------------------------------------------------------------
Полное имя : The.Terrorists.1974.x264.BDRip.720p.0ptimus.mkv
Формат : Matroska
Версия формата : Version 2
Размер файла : 3,18 Гбайт
Продолжительность : 1 ч. 28 м.
Общий поток : 5133 Кбит/сек
Название фильма : Выкуп | Ransom (The Terrorists) [1974] -= BDRip (720p) by 0ptimus =-
Дата кодирования : UTC 2014-10-14 13:42:25
Программа кодирования : mkvmerge v6.6.0 ('The Edge Of The In Between') built on Dec 1 2013 17:55:00
Библиотека кодирования : libebml v1.3.0 + libmatroska v1.4.1
Видео
Идентификатор : 1
Формат : AVC
Формат/Информация : Advanced Video Codec
Профиль формата : High@L4.1
Параметр CABAC формата : Да
Параметр ReFrames формата : 8 кадров
Идентификатор кодека : V_MPEG4/ISO/AVC
Продолжительность : 1 ч. 28 м.
Битрейт : 4300 Кбит/сек
Ширина : 1200 пикселей
Высота : 720 пикселей
Соотношение сторон : 1,667
Режим частоты кадров : Постоянный
Частота кадров : 23,976 кадра/сек
Цветовое пространство : YUV
Субдискретизация насыщенности : 4:2:0
Битовая глубина : 8 бит
Тип развёртки : Прогрессивная
Бит/(Пиксели*Кадры) : 0.208
Размер потока : 2,60 Гбайт (82%)
Заголовок : by 0ptimus
Библиотека кодирования : x264 core 124 r2197 69a0443
Настройки программы : cabac=1 / ref=8 / deblock=1:-2:-1 / analyse=0x3:0x113 / me=umh / subme=11 / psy=1 / psy_rd=1.00:0.20 / mixed_ref=1 / me_range=32 / chroma_me=1 / trellis=2 / 8x8dct=1 / cqm=0 / deadzone=21,11 / fast_pskip=0 / chroma_qp_offset=-3 / threads=4 / sliced_threads=0 / nr=0 / decimate=0 / interlaced=0 / bluray_compat=0 / constrained_intra=0 / bframes=6 / b_pyramid=2 / b_adapt=2 / b_bias=0 / direct=3 / weightb=1 / open_gop=0 / weightp=2 / keyint=250 / keyint_min=23 / scenecut=40 / intra_refresh=0 / rc=2pass / mbtree=0 / bitrate=4300 / ratetol=1.0 / qcomp=0.60 / qpmin=0 / qpmax=69 / qpstep=4 / cplxblur=20.0 / qblur=0.5 / ip_ratio=1.40 / pb_ratio=1.30 / aq=1:1.00
Язык : English
Default : Да
Forced : Да
Аудио #1
Идентификатор : 2
Формат : AC-3
Формат/Информация : Audio Coding 3
Расширение режима : CM (complete main)
Параметр Endianness формата : Big
Идентификатор кодека : A_AC3
Продолжительность : 1 ч. 28 м.
Вид битрейта : Постоянный
Битрейт : 192 Кбит/сек
Каналы : 2 канала
Расположение каналов : Front: L R
Частота : 48,0 КГц
Битовая глубина : 16 бит
Метод сжатия : С потерями
Размер потока : 122 Мбайт (4%)
Заголовок : Многоголосый [ОРТ] AC3 2.0 @ 192 kbps
Язык : Russian
Default : Да
Forced : Да
Аудио #2
Идентификатор : 3
Формат : AC-3
Формат/Информация : Audio Coding 3
Расширение режима : CM (complete main)
Параметр Endianness формата : Big
Идентификатор кодека : A_AC3
Продолжительность : 1 ч. 28 м.
Вид битрейта : Постоянный
Битрейт : 640 Кбит/сек
Каналы : 6 каналов
Расположение каналов : Front: L C R, Side: L R, LFE
Частота : 48,0 КГц
Битовая глубина : 16 бит
Метод сжатия : С потерями
Размер потока : 406 Мбайт (12%)
Заголовок : AC3 5.1 @ 640 kbps
Язык : English
Default : Нет
Forced : Нет
Текст
Идентификатор : 4
Формат : UTF-8
Идентификатор кодека : S_TEXT/UTF8
Идентификатор кодека/Информация : UTF-8 Plain Text
Язык : English
Default : Нет
Forced : Нет
Меню
00:00:00.000 : :Chapter 01
00:09:45.209 : :Chapter 02
00:20:16.632 : :Chapter 03
00:30:49.847 : :Chapter 04
00:39:43.130 : :Chapter 05
00:51:10.984 : :Chapter 06
00:59:33.570 : :Chapter 07
01:10:14.335 : :Chapter 08
01:21:09.656 : :Chapter 09
01:26:45.783 : :Chapter 10
01:28:45.069 : :Chapter 11

Скриншоты



Релиз от:
[Профиль] [ЛС]
Показать сообщения:    

Текущее время: Сегодня 12:47

Часовой пояс: GMT



Вы не можете начинать темы
Вы не можете отвечать на сообщения
Вы не можете редактировать свои сообщения
Вы не можете удалять свои сообщения
Вы не можете голосовать в опросах
Вы не можете прикреплять файлы к сообщениям
Вы не можете скачивать файлы