Выкрутасы (Леван Габриадзе) [2011 г., Россия, мелодрама, комедия, спорт, BDRip 1080p]

 
Автор Сообщение

TorrentFilm ®

Пол:

Стаж: 2 года

Сообщений: 7741



Награды: Нет

Торрент-статистика

Создавать темы 01-Янв-2016 00:05

[Цитировать]

Выкрутасы «Почему у этих М всё всегда через Ж?»
Страна: Россия
Жанр: мелодрама, комедия, спорт
Год выпуска: 2011
Продолжительность: 01:40:48-Перевод: Оригинал
Cубтитры: нет
Оригинальная аудиодорожка: Russian-Режиссер: Леван Габриадзе
В ролях: Константин Хабенский, Милла Йовович, Иван Ургант, Сергей Гармаш, Владимир Меньшов, Ольга Тумайкина, Галина Логинова, Сергей Селин, Сергей Шеховцов, Александр Кержаков-Описание: Слава Колотилов, простой школьный учитель из сонного приморского городка с небанальным названием «Пальчики», приехал покорять Москву с рукописью романа в руках, а покорил... красавицу Надю. Уже близится свадьба, ресторан заказан и гости приглашены, но цепкие Пальчики не дают Славе вырваться к суженой, подстраивая череду «непреодолимых обстоятельств». Вот и приходится Славе выкручиваться, рассказывая Наде по телефону небылицы о страшных происшествиях и катастрофах. А в далёкой Москве в это время Надя отбивает атаки своего бывшего ухажера Дани, готового пойти на любые выкрутасы, лишь бы вернуть себе невесту...- -Качество: BDRip 1080p
Контейнер: MKV
Видео: H.264, 1920x816, 23.976 fps, 12.5 Mbps avg
Аудио: Russian: DTS 5.1, 48 kHz, 1536 kbps avg

x264 [info]

---[NoImage] x264 [info]: frame I:1356 Avg QP:17.87 size:234113
---[NoImage] x264 [info]: frame P:32957 Avg QP:19.88 size:104338
---[NoImage] x264 [info]: frame B:110695 Avg QP:21.19 size: 51386

MediaInfo

General
Unique ID : 178967585574340750457058000783073456957 (0x86A3E738FB7794C8AE1E2C2BF60DB33D)
Complete name : D:\Vykrutasy.2011.BDRip.1080p.mkv
Format : Matroska
File size : 9.86 GiB
Duration : 1h 40mn
Overall bit rate : 14.0 Mbps
Movie name : Выкрутасы
Encoded date : UTC 2012-03-06 03:32:42
Writing application : mkvmerge v5.1.0 ('And so it goes') built on Nov 28 2011 23:58:28
Writing library : libebml v1.2.3 + libmatroska v1.3.0
Video
ID : 1
Format : AVC
Format/Info : Advanced Video Codec
Format profile : High@L4.1
Format settings, CABAC : Yes
Format settings, ReFrames : 4 frames
Codec ID : V_MPEG4/ISO/AVC
Duration : 1h 40mn
Bit rate : 12.5 Mbps
Width : 1 920 pixels
Height : 816 pixels
Display aspect ratio : 2.35:1
Frame rate : 23.976 fps
Color space : YUV
Chroma subsampling : 4:2:0
Bit depth : 8 bits
Scan type : Progressive
Bits/(Pixel*Frame) : 0.333
Stream size : 8.60 GiB (87%)
Title : Выкрутасы
Writing library : x264 core 120 r2164 da19765
Encoding settings : cabac=1 / ref=4 / deblock=1:-3:-3 / analyse=0x3:0x113 / me=umh / subme=10 / psy=1 / psy_rd=1.00:0.00 / mixed_ref=1 / me_range=48 / chroma_me=1 / trellis=2 / 8x8dct=1 / cqm=0 / deadzone=21,11 / fast_pskip=0 / chroma_qp_offset=-2 / threads=12 / sliced_threads=0 / nr=0 / decimate=1 / interlaced=0 / bluray_compat=0 / constrained_intra=0 / bframes=8 / b_pyramid=2 / b_adapt=2 / b_bias=0 / direct=3 / weightb=1 / open_gop=0 / weightp=2 / keyint=230 / keyint_min=23 / scenecut=40 / intra_refresh=0 / rc_lookahead=40 / rc=2pass / mbtree=1 / bitrate=12500 / ratetol=1.0 / qcomp=0.60 / qpmin=0 / qpmax=69 / qpstep=4 / cplxblur=20.0 / qblur=0.5 / ip_ratio=1.40 / aq=1:1.00
Language : Russian
Audio
ID : 2
Format : DTS
Format/Info : Digital Theater Systems
Codec ID : A_DTS
Duration : 1h 40mn
Bit rate mode : Constant
Bit rate : 1 510 Kbps
Channel(s) : 6 channels
Channel positions : Front: L C R, Side: L R, LFE
Sampling rate : 48.0 KHz
Bit depth : 16 bits
Compression mode : Lossy
Stream size : 1.06 GiB (11%)
Title : DTS
Language : Russian
Menu
00:00:00.000 : ru:Chapter 01
00:04:45.201 : ru:Chapter 02
00:10:52.401 : ru:Chapter 03
00:15:59.041 : ru:Chapter 04
00:21:45.012 : ru:Chapter 05
00:26:23.415 : ru:Chapter 06
00:33:21.416 : ru:Chapter 07
00:38:31.976 : ru:Chapter 08
00:46:34.917 : ru:Chapter 09
00:51:43.600 : ru:Chapter 10
00:58:07.150 : ru:Chapter 11
01:02:06.597 : ru:Chapter 12
01:09:24.994 : ru:Chapter 13
01:15:02.873 : ru:Chapter 14
01:20:04.841 : ru:Chapter 15
01:25:19.697 : ru:Chapter 16
01:29:35.453 : ru:Chapter 17
01:34:11.771 : ru:Chapter 18

Скриншоты

[Профиль] [ЛС]
Показать сообщения:    

Текущее время: Сегодня 04:27

Часовой пояс: GMT



Вы не можете начинать темы
Вы не можете отвечать на сообщения
Вы не можете редактировать свои сообщения
Вы не можете удалять свои сообщения
Вы не можете голосовать в опросах
Вы не можете прикреплять файлы к сообщениям
Вы не можете скачивать файлы