Выигрышный билет / Ticket gagnant (Жюльен Вейль / Julien Weill) [2009, Франция, черная комедия, DVB] Original (Fre) + Sub (rus)

 
Автор Сообщение

TorrentFilm ®

Пол:

Стаж: 2 года

Сообщений: 7741



Награды: Нет

Торрент-статистика

Создавать темы 13-Мар-2016 00:00

[Цитировать]

Выигрышный билет
Ticket gagnant- Страна: Франция
Жанр: черная комедия
Год выпуска: 2009
Продолжительность: 01:22:28
Перевод: Субтитры (перевод А. Дунаева, Éclair Group/TELETOTA)
Cубтитры: русские
Оригинальная аудиодорожка: французский
Режиссер: Жюльен Вейль / Julien WeillВ ролях: Лионель Абелански / Lionel Abelanski (Benoît Vautrin), Элен Венсан / Hélène Vincent (Jeanne Vautrin), Владимир Йорданофф / Wladimir Yordanoff (André Laliche), Этьен Шико / Etienne Chicot (Guy Delsol), Кристина Читти / Christine Citti (Béatrice Delavenne), Матиас Млекюз / Mathias Mlekuz (Jean Delavenne)
Описание: 40-летний Бенуа Вотрен, рядовой служащий кредитной конторы, проживает в тихом небогатом пригороде вдвоем с матерью, страдающей болезнью Альцгеймера. Его жизнь будто завязла в ежедневной рутине, монотонно перемежающейся работой и домом. Но внезапно все меняется, когда он находит лотерейный билет, выигравший миллион. Можете догадаться, как жители бедного квартала отнесутся к внезапно свалившемуся богатству их соседа? Плохо, очень плохо... Вплоть до того, что однажды Бенуа на пороге своего дома обнаружит коробку с отрезанным пальцем похищенной матери и требованием выкупа...
Доп. информация: Hot Bird (13.0°E) TV5MONDE Europe DVB-S
Информация: http://www.imdb.com/title/tt1527210/
Сэмпл: http://multi-up.com/875631
Качество видео: DVB
Формат видео: MPEG-PS [url=viewtopic.php?p=58098458#58098458](См. при проблемах с просмотром видео)[/url]
Видео: MPEG Video 2, 720x576@1024x576 (16:9), 25 fps, ~2731 kbps avg, 0.263 bit/pixel
Аудио: Французский (48 kHz, MPEG Audio 2, 2 ch, ~192.00 kbps avg)
Формат субтитров: hardsub (неотключаемые)

MediaInfo

Полное имя : H:\My Torrents\[apreder]Ticket_gagnant(2009)DVB.mpgФормат : MPEG-PSРазмер файла : 1,72 ГбайтПродолжительность : 1 ч. 22 м.Режим общего битрейта : ПеременныйОбщий поток : 2982 Кбит/сек
ВидеоИдентификатор : 224 (0xE0)Формат : MPEG VideoВерсия формата : Version 2Профиль формата : Main@MainПараметр BVOP формата : ДаПараметр матрицы формата : ВыборочнаяПараметр GOP формата : M=3, N=24Продолжительность : 1 ч. 22 м.Вид битрейта : ПеременныйБитрейт : 2731 Кбит/секШирина : 720 пикселейВысота : 576 пикселейСоотношение сторон : 16:9Частота кадров : 25,000 кадров/секСтандарт вещания : PALЦветовое пространство : YUVСубдискретизация насыщенности : 4:2:0Битовая глубина : 8 битТип развёртки : ПрогрессивнаяПорядок развёртки : Верхнее поле первоеМетод сжатия : С потерямиБит/(Пиксели*Кадры) : 0.263TimeCode_FirstFrame : 00:00:00:00TimeCode_Source : Group of pictures headerРазмер потока : 1,57 Гбайт (92%)
АудиоИдентификатор : 192 (0xC0)Формат : MPEG AudioВерсия формата : Version 1Профиль формата : Layer 2Продолжительность : 1 ч. 22 м.Вид битрейта : ПостоянныйБитрейт : 192 Кбит/секКаналы : 2 каналаЧастота : 48,0 КГцМетод сжатия : С потерямиРазмер потока : 113 Мбайт (6%)

Скриншот c названием фильма

Скриншоты


Скриншоты анаморфированные


-796/778√
[Профиль] [ЛС]

Создавать темы 12-Июн-2016 07:56 (спустя 2 месяца 30 дней)

Топик был перенесен из форума Фильмы 2011 года в форум Фильмы 2009 года
Russian Mafia
 
Показать сообщения:    

Текущее время: Сегодня 18:46

Часовой пояс: GMT



Вы не можете начинать темы
Вы не можете отвечать на сообщения
Вы не можете редактировать свои сообщения
Вы не можете удалять свои сообщения
Вы не можете голосовать в опросах
Вы не можете прикреплять файлы к сообщениям
Вы не можете скачивать файлы