Выжить любой ценой (Сезон 4) / Ultimate Survival / Man vs Wild (Season 4) [2009 г., Документальный, HDTVRip]

 
Автор Сообщение

reversefile ®

Пол:

Стаж: 4 года 5 месяцев

Сообщений: 842

Откуда: ReverseFile.org



Награды: Нет

Торрент-статистика

Создавать темы 24-Июл-2014 17:55

[Цитировать]

Ultimate Survival
Выжить любой ценой

-Год выпуска: 2009
Страна: Великобритания
Жанр: Документальный
Продолжительность: 14 x 44 мин (Реклама вырезана)
Перевод: Профессиональный (одноголосый)
Русские субтитры: нет
-В ролях: Беар Гриллс
-Описание: Беар служил в спецназе S.A.S является экспертом по выживанию в экстремальных
природных условиях. В этих фильмах он покажет как надо выживать, какие опасности таит в себе
природа. Беар покажет навыки выживания самым экстремальным образом. Его выкидывают из
вертолета с высоты 2000 метров и кроме парашюта у него есть при себе только нож и огниво.
Он должен найти пищу, воду, направление движения, укрытие. На пути Беара будут вставать:
скорпионы, каракурты, кобры, носороги, пираньи, акулы, слоны, медведи, львы, а также
нестерпимый холод и адская жара.-Качество: HDTVRip (Исходник 1-8,10,12,14) & (Исходник 9,11,13)
Энкод: SOFCJ
Формат: AVI
Видео: Xvid 720x400, 25-29 fps- ~ 1400 Kbps
Аудио: MPEG Audio Layer 3 48000Hz stereo 192kbps

Список эпизодов

4x01 Arctic Circle
4x02 Alabama
4x03 Vietnam
4x04 Texas V2
4x05 Alaska
4x06 Bear's Ultimate Survival Guide Part Two
4x07 The Inside Story
4x08 Pacific Island
4x09 China
4x10 Big Sky Country
4x11 Guatemala
4x12 Urban Survivor
4x13 Shooting Survival
4x14 North Africa

MediaInfo

Format                                   : AVI
Format/Info                              : Audio Video Interleave
File size                                : 502 MiB
Duration                                 : 43mn 38s
Overall bit rate                         : 1 609 Kbps
Movie name                               : 4x03 Vietnam
Production studio                        : Discovery
Copyright                                : encoded by SOFCJ
Video
ID                                       : 0
Format                                   : MPEG-4 Visual
Format profile                           : Advanced Simple@L5
Format settings, BVOP                    : 2
Format settings, QPel                    : No
Format settings, GMC                     : No warppoints
Format settings, Matrix                  : Default (MPEG)
Codec ID                                 : XVID
Codec ID/Hint                            : XviD
Duration                                 : 43mn 38s
Bit rate                                 : 1 407 Kbps
Width                                    : 720 pixels
Height                                   : 400 pixels
Display aspect ratio                     : 16:9
Frame rate                               : 25.000 fps
Color space                              : YUV
Chroma subsampling                       : 4:2:0
Bit depth                                : 8 bits
Scan type                                : Progressive
Compression mode                         : Lossy
Bits/(Pixel*Frame)                       : 0.195
Stream size                              : 439 MiB (87%)
Writing library                          : XviD 1.2.1 (UTC 2008-12-04)
Audio
ID                                       : 1
Format                                   : MPEG Audio
Format version                           : Version 1
Format profile                           : Layer 3
Codec ID                                 : 55
Codec ID/Hint                            : MP3
Duration                                 : 43mn 38s
Bit rate mode                            : Constant
Bit rate                                 : 192 Kbps
Channel(s)                               : 2 channels
Sampling rate                            : 48.0 KHz
Compression mode                         : Lossy
Stream size                              : 59.9 MiB (12%)
Alignment                                : Aligned on interleaves
Interleave, duration                     : 40 ms (1.00 video frame)
Interleave, preload duration             : 504 ms
Writing library                          : L3.99r
Encoding settings                        : -m s -V 4 -q 2 -lowpass 18.6 -b 192
Language                                 : 5

Отличия от существующих раздач

От этой раздачи, лучшее качество видео,выше разрешение при том же размере,там 640х400,тут 720х400.Сравнение
Раздача обновлена 22.12.13! Удалена реклама из серии 4x04 Texas.
Просьба перекачать торрент файл.
[Профиль] [ЛС]
Показать сообщения:    

Текущее время: Сегодня 08:56

Часовой пояс: GMT



Вы не можете начинать темы
Вы не можете отвечать на сообщения
Вы не можете редактировать свои сообщения
Вы не можете удалять свои сообщения
Вы не можете голосовать в опросах
Вы не можете прикреплять файлы к сообщениям
Вы не можете скачивать файлы