Выжить Вместе / Dual Survival (Discovery Channel) (Сезон 3. 1-11 серия) [2013, Приключения, Путешествия, 576i, MPEG, IPTVRip]

 
Автор Сообщение

reversefile ®

Пол:

Стаж: 4 года 5 месяцев

Сообщений: 842

Откуда: ReverseFile.org



Награды: Нет

Торрент-статистика

Создавать темы 24-Июл-2014 17:55

[Цитировать]

Выжить вместе / Dual Survival (Сезон 3. 1-11 серия)
Год выпуска: 2013
Страна: США
Жанр: Приключения, Путешествия
Продолжительность: 00:44:11
Перевод: Профессиональный (многоголосый, закадровый)
Режиссер: Discovery Channel
Описание: Бывший морской пехотинец Джо Тетай и профессиональный инструктор по выживанию Коди Ландин снова отправляются в самые негостеприимные места на Земле и демонстрируют необходимые для выживания навыки.
25.10.2013 - Добавлена 1-ая Серия
05.11.2013 - Добавлена 4 и 5-ая Серия
16.11.2013 - Добавлена 2-ая Серия
23.11.2013 - Добавлена 7-ая Серия
30.11.2013 - Добавлена 8-ая Серия
15.12.2013 - Добавлена 9-10-ая Серия + Заменена 4-я
25.12.2013 - Добавлена 11-ая Серия
08.01.2014 - Добавлена 6-ая Серия
18.01.2014 - Добавлена 3-ая Серия
Cписок серий 3-го сезона
3x01 Mars on Earth / Марс на Земле
3x02 On The Menu / Кто кого съест
3x03 Into The Frying Pan / Как на сковородке
3x04 Trouble in Paradise / Рай, обернувшийся адом
3x05 The Green Hell / Зеленый Ад
3x06 Twin Peaks / Двое на вулкане
3x07 Meltdown / Скандал
3x08 Belly of the Beast / В брюхе зверя
3x09 Castaways / Выброшенные на берег
3x10 Rocky Mountain High / Вершины скалистых гор
3x11 Misty Mountain Drop / Туманные обрывы

Автор записи: BL (БэстЛайв) Специально для пользователей Rutracker.org
6-ю серию предоставил Black_Scorpion_666 за что ему большое спасибо!
Сэмпл: http://multi-up.com/916603
Качество: IPTVRip
Формат: MPG
Видео: MPEG2, 720x576i (4:3) 25 FPS, 3 202 Kbps
Аудио: MPEG Layer-II 192 kbps 48.0 kHz

MediaInfo

Dual.Survival.s03e01.Rus_BL.mpg
Format : MPEG-PS
File size : 1.07 GiB
Duration : 44mn 11s
Overall bit rate mode : Variable
Overall bit rate : 3 463 Kbps
Writing library : (c) 1998-2010 Womble Multimedia, Inc. / MPEG Video Wizard DVD 5.0.0.114 (01/2010) / Nov 13 2010
Video
ID : 224 (0xE0)
Format : MPEG Video
Format version : Version 2
Format profile : Main@Main
Format settings, BVOP : Yes
Format settings, Matrix : Custom
Format settings, GOP : Variable
Duration : 44mn 11s
Bit rate mode : Variable
Bit rate : 3 202 Kbps
Maximum bit rate : 15.0 Mbps
Width : 720 pixels
Height : 576 pixels
Display aspect ratio : 4:3
Frame rate : 25.000 fps
Standard : PAL
Color space : YUV
Chroma subsampling : 4:2:0
Bit depth : 8 bits
Scan type : Interlaced
Scan order : Top Field First
Compression mode : Lossy
Bits/(Pixel*Frame) : 0.309
Time code of first frame : 00:00:00:00
Time code source : Group of pictures header
Stream size : 1 012 MiB (92%)
Writing library : (c) 1998-2010 Womble Multimedia, Inc. / MPEG Video Wizard DVD 5.0.0.114 (01/2010) / Nov 13 2010
Audio
ID : 192 (0xC0)
Format : MPEG Audio
Format version : Version 1
Format profile : Layer 2
Duration : 44mn 11s
Bit rate mode : Constant
Bit rate : 192 Kbps
Channel(s) : 2 channels
Sampling rate : 48.0 KHz
Compression mode : Lossy
Stream size : 60.7 MiB (6%)

Скриншоты АнаморфСкриншоты 3x01 Mars on Earth

Скриншоты 3x02 On The Menu

Скриншоты 3x03 Into The Frying Pan

Скриншоты 3x04 Trouble in Paradise

Скриншоты 3x05 The Green Hell

Скриншоты 3x06 Twin Peaks

Скриншоты 3x07 Meltdown

Скриншоты 3x08 Belly of the Beast

Скриншоты 3x09 Castaways

Скриншоты 3x10 Rocky Mountain High

Скриншоты 3x11 Misty Mountain Drop

При перезаливе на другие трекера (сайты) просьба указывать источник(Rutracker.org) и автора. Спасибо.
[Профиль] [ЛС]
Показать сообщения:    

Текущее время: Сегодня 10:33

Часовой пояс: GMT



Вы не можете начинать темы
Вы не можете отвечать на сообщения
Вы не можете редактировать свои сообщения
Вы не можете удалять свои сообщения
Вы не можете голосовать в опросах
Вы не можете прикреплять файлы к сообщениям
Вы не можете скачивать файлы