Выжить Вместе: Бразилия / Dual Survival: Brazil (Discovery Channel) (Сезон 1. 1-6 серия) [2012, Приключения, Путешествия, 576i, MPEG, IPTVRip]

 
Автор Сообщение

reversefile ®

Пол:

Стаж: 4 года 5 месяцев

Сообщений: 842

Откуда: ReverseFile.org



Награды: Нет

Торрент-статистика

Создавать темы 24-Июл-2014 17:55

[Цитировать]

Выжить Вместе: Бразилия / Dual Survival: Brazil (Discovery Channel) (Сезон 1. 1-6 серия)
Год выпуска: 2012
Страна: Бразилия
Жанр: Приключения, Путешествия
Продолжительность: 00:42:22
Перевод: Профессиональный (одноголосый)
Режиссер: Discovery Channel
Описание: Эксперты по выживанию Лео Роша и полковник Лейте покажут как выжить в Бразилии.

Cписок серий 1-го сезона с описанием1x01 ТЕРРА ДОС КАНИОНС

Два бразильских эксперта по выживанию, один бывший десантник, а второй - вырос в джунглях, едут в Амазонию. Что нужно знать, чтобы выжить в этих опасных условиях?

1x02 КАМИНЬО ДАС АГУАС

Лео и Лейте отправляются в регион Халапа в центре Бразилии. Смогут ли они защититься от ядовитых хищников и раскаленного солнца в этих далеких краях?

1x03 СЕКА ВЕРДЕ

В национальном парке Серра Да Капивара Лео и Лейте проверяют свои навыки выживания. Смогут ли они найти воду, чтобы выжить в этом засушливом ландшафте?

1x04 ЗАЛИВНЫЕ ПОЙМЫ

На обширных заливных поймах Пантанал живут крокодилы, змеи и хищные рыбы. Смогут ли Лео и Лейте выбраться из самых больших болот в мире и найти дорогу обратно к цивилизации?

1x05 МОНТАНЬЯ АБАЙШУ

Лео и Лейте оказываются в глуши Патагонии и должны сделать все возможное, чтобы выжить. Как им удастся добраться назад к цивилизации?

1x06 ТЕРРА ДЕ ФИОРДЕШ

Лео и Лейте выступают в роли байдарочников, заблудившихся в устье реки во фьорде около чилийского острова Чило. Смогут ли они найти еду и убежище, пока их не спасут?
Автор записи: BL
Сэмпл: http://multi-up.com/935594
Качество: IPTVRip
Формат: MPG
Видео: MPEG2, 720x576i (4:3) 25 FPS, 3 184 Kbps
Аудио: MPEG Layer-II 192 kbps 48.0 kHz

MediaInfo

Dual.Survival.Brasil.E01_BL.mpg
Format : MPEG-PS
File size : 1.02 GiB
Duration : 42mn 22s
Overall bit rate mode : Variable
Overall bit rate : 3 444 Kbps
Writing library : (c) 1998-2010 Womble Multimedia, Inc. / MPEG Video Wizard DVD 5.0.0.114 (01/2010) / Nov 13 2010
Video
ID : 224 (0xE0)
Format : MPEG Video
Format version : Version 2
Format profile : Main@Main
Format settings, BVOP : Yes
Format settings, Matrix : Custom
Format settings, GOP : Variable
Duration : 42mn 22s
Bit rate mode : Variable
Bit rate : 3 184 Kbps
Maximum bit rate : 15.0 Mbps
Width : 720 pixels
Height : 576 pixels
Display aspect ratio : 4:3
Frame rate : 25.000 fps
Standard : PAL
Color space : YUV
Chroma subsampling : 4:2:0
Bit depth : 8 bits
Scan type : Interlaced
Scan order : Top Field First
Compression mode : Lossy
Bits/(Pixel*Frame) : 0.307
Time code of first frame : 00:00:00:00
Time code source : Group of pictures header
Stream size : 965 MiB (92%)
Writing library : (c) 1998-2010 Womble Multimedia, Inc. / MPEG Video Wizard DVD 5.0.0.114 (01/2010) / Nov 13 2010
Audio
ID : 192 (0xC0)
Format : MPEG Audio
Format version : Version 1
Format profile : Layer 2
Duration : 42mn 22s
Bit rate mode : Constant
Bit rate : 192 Kbps
Channel(s) : 2 channels
Sampling rate : 48.0 KHz
Compression mode : Lossy
Stream size : 58.2 MiB (6%)

Скриншоты АнаморфСкриншоты 1x01 ТЕРРА ДОС КАНИОНС

Скриншоты 1x02 КАМИНЬО ДАС АГУАС

Скриншоты 1x03 СЕКА ВЕРДЕ

Скриншоты 1x04 ЗАЛИВНЫЕ ПОЙМЫ

Скриншоты 1x05 МОНТАНЬЯ АБАЙШУ

Скриншоты 1x06 ТЕРРА ДЕ ФИОРДЕШ

При перезаливе на другие трекера (сайты) просьба указывать источник(Rutracker.org) или автора. Спасибо.
[Профиль] [ЛС]
Показать сообщения:    

Текущее время: Сегодня 03:25

Часовой пояс: GMT



Вы не можете начинать темы
Вы не можете отвечать на сообщения
Вы не можете редактировать свои сообщения
Вы не можете удалять свои сообщения
Вы не можете голосовать в опросах
Вы не можете прикреплять файлы к сообщениям
Вы не можете скачивать файлы