Выживший / The Revenant (2015) DVD5

 
Автор Сообщение

BOSS ®

Пол:

Стаж: 2 года 1 месяц

Сообщений: 3713

Откуда: ODESSA



Награды: 20 (Подробнее)

Mega Seeder 4 (Количество: 1) Top Releaser 3 (Количество: 1) Top Seeder 5 (Количество: 1)
Торрент-статистика

Создавать темы 28-Апр-2016 19:19

[Цитировать]

«До последней капли крови»

Год выпуска: 2015
Производство: США, Гонконг, Тайвань, Канада / 20th Century Fox, New Regency Pictures, RatPac Entertainment
Жанр: Триллер, драма, приключения, вестерн
Режиссер: Алехандро Гонсалес Иньярриту
Продюсеры: Стив Голин, Алехандро Гонсалес Иньярриту, Арнон Милчен
Актеры: Леонардо ДиКаприо, Том Харди, Донал Глисон, Уилл Поултер, Форрест Гудлак, Пол Андерсон, Кристоффер Йонер, Джошуа Бёрдж, Дуан Ховард, Мила Нахеко
Описание фильма:
Охотник Хью Гласс серьезно ранен на неизведанных просторах американского Дикого Запада. Товарищ Хью по отряду покорителей новых земель Джон Фицжеральд предательски оставляет его умирать в одиночестве. Теперь у Гласса осталось только одно оружие — его сила воли. Он готов бросить вызов первобытной природе, суровой зиме и враждебным племенам индейцев, только чтобы выжить и отомстить Фицжеральду.
Перевод: Дублированный
Субтитры: Английские, русские-Дата мировой премьеры: 16 декабря 2015
Дата премьеры в России: 7 января 2016, «Двадцатый Век Фокс СНГ»
-Продолжительность: 02:36:12
Качество видео: DVD5
Видео: MPEG-2, 720x480@853x480 (NTSC 16:9), ~3700 Кбит/сек
Аудио: AC3 5.1, 448 Кбит/сек

DVDInfo:

Title: The Revenant (2015) DVD5 NTSC
Size: 4.37 Gb ( 4 586 060,00 KBytes ) - DVD-5
Enabled regions: 1, 2, 3, 4, 5, 6, 7, 8
VTS_01 :
Play Length: 02:36:12+00:00:00
Video: NTSC 16:9 (720x480) VBR, Auto Letterboxed
Audio:
Russian (Dolby AC3, 6 ch)
Subtitles:
English
English
Russian
Russian
* Menus Information *
VIDEO_TS Menu
Video:
NTSC 16:9 (720x480) VBR
Auto Pan&Scan
English Language Unit :
Title Menu
VTS_01 Menu
Video:
NTSC 16:9 (720x480) VBR
Auto Pan&Scan
Audio:
Not specified (Dolby AC3, 6 ch)
English Language Unit :
Root Menu
Chapter (PTT) Menu

MediaInfo:

Общее
Полное имя : G:ВидеоThe Revenant (2015) DVD5 NTSCVIDEO_TSVTS_01_1.VOB
Формат : MPEG-PS
Размер файла : 1024 Мбайт
Продолжительность : 33 м.
Режим общего битрейта : Переменный
Общий поток : 4254 Кбит/сек
Библиотека кодирования : encoded by TMPGEnc (ver. 2.524.63.181)
Видео
Идентификатор : 224 (0xE0)
Формат : MPEG Video
Версия формата : Version 2
Профиль формата : Main@Main
Параметр BVOP формата : Да
Параметр матрицы формата : Выборочная
Параметр GOP формата : Variable
Продолжительность : 33 м.
Вид битрейта : Переменный
Битрейт : 3721 Кбит/сек
Ширина : 720 пикселей
Высота : 480 пикселей
Соотношение сторон : 16:9
Частота кадров : 23,976 (24000/1001) кадра/сек
Стандарт вещания : NTSC
Цветовое пространство : YUV
Субдискретизация насыщенности : 4:2:0
Битовая глубина : 8 бит
Тип развёртки : Прогрессивная
Порядок развёртки : 2:3 Pulldown
Метод сжатия : С потерями
Бит/(Пиксели*Кадры) : 0.449
Временной код первого кадра : 00:00:00:00
Оригинал временного кода : Group of pictures header
Размер потока : 896 Мбайт (87%)
Библиотека кодирования : TMPGEnc 2.524.63.181
Основные цвета : BT.601 NTSC
Характеристики трансфера : BT.601
Коэффициенты матрицы : BT.601
Аудио
Идентификатор : 189 (0xBD)-130 (0x82)
Формат : AC-3
Формат/Информация : Audio Coding 3
Расширение режима : CM (complete main)
Параметр Endianness формата : Big
Режим смешивания : DVD-Video
Продолжительность : 33 м.
Вид битрейта : Постоянный
Битрейт : 448 Кбит/сек
Каналы : 6 каналов
Расположение каналов : Front: L C R, Side: L R, LFE
Частота : 48,0 КГц
Частота кадров : 31,250 кадров/сек (1536 spf)
Метод сжатия : С потерями
Размер потока : 108 Мбайт (11%)
Текст #1
Идентификатор : 189 (0xBD)-32 (0x20)
Формат : RLE
Формат/Информация : Run-length encoding
Режим смешивания : DVD-Video
Текст #2
Идентификатор : 189 (0xBD)-33 (0x21)
Формат : RLE
Формат/Информация : Run-length encoding
Режим смешивания : DVD-Video
Текст #3
Идентификатор : 189 (0xBD)-34 (0x22)
Формат : RLE
Формат/Информация : Run-length encoding
Режим смешивания : DVD-Video
Текст #4
Идентификатор : 189 (0xBD)-35 (0x23)
Формат : RLE
Формат/Информация : Run-length encoding
Режим смешивания : DVD-Video
Меню

Доп. информация:

Исходник: Выживший / The Revenant (2015) DVD9 | D, А
Удалены: звуковые дорожки (в меню кнопки затёрты).
Команды диска переписаны заново, оставлен один VTS.
Видео сжато на 34,8%
Меню: статичное, недействующие кнопки затерты и закрыты.
Обработка и сжатие: DVD ReMake Pro + DVD Rebuilder + CCE SP2 [7 проходов] + Работа с меню (Adobe PhotoShop и MuxMan).

Скриншоты меню:

Скриншоты:
[Профиль] [ЛС]
Кто просматривает тему:

Форум Тема Автор Размер
BBC BBC: Дуб - искусство выживания / Oak Tree: Nature's Greatest Survivor (Ник Стэйси / Nic Stacey) [2016 г., Документальный, научно-популярный, история, HDTVRip 720p] skorpionN 2.08 GB
Путешествия и туризм Discovery. Выживание без купюр / Marooned with Ed Staffordl [S02] (2014) HDTV 1080p от GeneralFilm | P1 sergej644 8.84 GB
Discovery Discovery. Звездное выживание с Беаром Гриллсом / Running Wild Bear Grylls [S02] (2014) HDTVRip от GeneralFilm | P Russian Mafia 4.02 GB
Discovery Discovery. Звездное выживание с Беаром Гриллсом / Running Wild Bear Grylls [S02] (2015) HDTVRip 720p от GeneralFilm | P Russian Mafia 9.68 GB
National Geographic NG: Инстинкт выживания / Primal Survivor [сезон 1 cерии 1-9 из 9] (Энтони Баруэлл, Розалинд Бэйн / Anthony Barwell, Rosalind Bain) [2015 г., Документальный, SATRip] skorpionN 5.52 GB
Разная литература Алексей Ардашев - Базовая подготовка Спецназа. Экстремальное выживание (2016) FB2 достали все 17 MB
Документальные HD Амазония: Инструкция по выживанию / Amazonia (Тьерри Рагоберт / Thierry Ragobert) [2013, Документальный, приключения, семейный, BDRemux 1080p] TorrentFilm 16.08 GB
Документальные HD Амазония: Инструкция по выживанию / Amazonia (Тьерри Рагоберт / Thierry Ragobert) [2013, Документальный, приключения, семейный, BDRip 720p] TorrentFilm 5.19 GB
Показать сообщения:    

Текущее время: Сегодня 14:01

Часовой пояс: GMT



Вы не можете начинать темы
Вы не можете отвечать на сообщения
Вы не можете редактировать свои сообщения
Вы не можете удалять свои сообщения
Вы не можете голосовать в опросах
Вы не можете прикреплять файлы к сообщениям
Вы не можете скачивать файлы