Выживший / The Revenant (2015) BDRip 1080p | Лицензия

 
Автор Сообщение

Russian Mafia ®

Пол:

Стаж: 1 год 8 месяцев

Сообщений: 4257



Награды: 10 (Подробнее)

Top Releaser 4 (Количество: 1) Mega Seeder 3 (Количество: 1) За внесенный вклад в развитие сайта (Количество: 1)
Торрент-статистика

Создавать темы 22-Апр-2016 16:19

[Цитировать]

Информация о фильме
Название: Выживший
Оригинальное название: The Revenant
Год выхода: 2015
Жанр: триллер, драма, приключения, вестерн
Режиссер: Алехандро Гонсалес Иньярриту
В ролях: Леонардо ДиКаприо, Том Харди, Донал Глисон, Уилл Поултер, Форрест Гудлак, Пол Андерсон, Кристоффер Йонер, Джошуа Бёрдж, Дуан Ховард, Мила Нахеко
О фильме: Охотник Хью Гласс серьезно ранен на неизведанных просторах американского Дикого Запада. Товарищ Хью по отряду покорителей новых земель Джон Фицжеральд предательски оставляет его умирать в одиночестве. Теперь у Гласса осталось только одно оружие — его сила воли. Он готов бросить вызов первобытной природе, суровой зиме и враждебным племенам индейцев, только чтобы выжить и отомстить Фицжеральду.

Выпущено: Regency Enterprises
Продолжительность: 02:36:21
Перевод: Дублированный (лицензия)
Файл
Кодек: x264
Качество: BDRip (источник: Blu-ray Disc)
Видео: 1920x804 (2,40:1), 23.976 fps, 9300 kbps
Аудио #1: AC-3, 6 ch, 640 kbps (Rus)
Аудио #2: AC-3, 6 ch, 640 kbps (Eng)
Субтитры: Русские (форс,полные), Английские
Скачать: сэмпл
Скриншоты

MI

Общее
Уникальный идентификатор : 198488623077310732493734669835725744164 (0x955384AE0788EAAEA26314A924B4A824)
Полное имя : The.Revenant.2015.BDRip.1080p.Rus.Eng.mkv
Формат : Matroska
Версия формата : Version 2
Размер файла : 11,6 Гбайт
Продолжительность : 2 ч. 36 м.
Общий поток : 10,5 Мбит/сек
Название фильма : Выживший / The Revenant (2015)
Дата кодирования : UTC 2016-04-19 18:53:58
Программа кодирования : mkvmerge v5.8.0 ('No Sleep / Pillow') built on Sep 2 2012 15:37:04
Библиотека кодирования : libebml v1.2.3 + libmatroska v1.3.0
Видео
Идентификатор : 1
Формат : AVC
Формат/Информация : Advanced Video Codec
Профиль формата : High@L4.1
Параметр CABAC формата : Да
Параметр ReFrames формата : 5 кадров
Идентификатор кодека : V_MPEG4/ISO/AVC
Продолжительность : 2 ч. 36 м.
Битрейт : 9300 Кбит/сек
Ширина : 1920 пикселей
Высота : 804 пикселя
Соотношение сторон : 2,40:1
Режим частоты кадров : Постоянный
Частота кадров : 23,976 кадра/сек
Цветовое пространство : YUV
Субдискретизация насыщенности : 4:2:0
Битовая глубина : 8 бит
Тип развёртки : Прогрессивная
Бит/(Пиксели*Кадры) : 0.251
Размер потока : 9,92 Гбайт (86%)
Заголовок : Release by AlexKa
Библиотека кодирования : x264 core 148 r2692 64f4e24
Настройки программы : cabac=1 / ref=5 / deblock=1:-3:-3 / analyse=0x3:0x133 / me=umh / subme=11 / psy=1 / psy_rd=1.00:0.00 / mixed_ref=1 / me_range=32 / chroma_me=1 / trellis=2 / 8x8dct=1 / cqm=0 / deadzone=21,11 / fast_pskip=0 / chroma_qp_offset=-2 / threads=12 / lookahead_threads=2 / sliced_threads=0 / nr=0 / decimate=0 / interlaced=0 / bluray_compat=0 / constrained_intra=0 / bframes=8 / b_pyramid=2 / b_adapt=2 / b_bias=0 / direct=3 / weightb=1 / open_gop=0 / weightp=2 / keyint=240 / keyint_min=23 / scenecut=40 / intra_refresh=0 / rc=2pass / mbtree=0 / bitrate=9300 / ratetol=1.0 / qcomp=0.60 / qpmin=0 / qpmax=69 / qpstep=4 / cplxblur=20.0 / qblur=0.5 / ip_ratio=1.40 / pb_ratio=1.30 / aq=1:0.70
Язык : English
Аудио #1
Идентификатор : 2
Формат : AC-3
Формат/Информация : Audio Coding 3
Расширение режима : CM (complete main)
Параметр Endianness формата : Big
Идентификатор кодека : A_AC3
Продолжительность : 2 ч. 36 м.
Вид битрейта : Постоянный
Битрейт : 640 Кбит/сек
Каналы : 6 каналов
Расположение каналов : Front: L C R, Side: L R, LFE
Частота : 48,0 КГц
Метод сжатия : С потерями
Размер потока : 718 Мбайт (6%)
Заголовок : Rus
Язык : Russian
Аудио #2
Идентификатор : 3
Формат : AC-3
Формат/Информация : Audio Coding 3
Расширение режима : CM (complete main)
Параметр Endianness формата : Big
Идентификатор кодека : A_AC3
Продолжительность : 2 ч. 36 м.
Вид битрейта : Постоянный
Битрейт : 640 Кбит/сек
Каналы : 6 каналов
Расположение каналов : Front: L C R, Side: L R, LFE
Частота : 48,0 КГц
Метод сжатия : С потерями
Размер потока : 718 Мбайт (6%)
Заголовок : Eng
Язык : English
Текст #1
Идентификатор : 4
Формат : UTF-8
Идентификатор кодека : S_TEXT/UTF8
Идентификатор кодека/Информация : UTF-8 Plain Text
Заголовок : Rus forced
Язык : Russian
Текст #2
Идентификатор : 5
Формат : UTF-8
Идентификатор кодека : S_TEXT/UTF8
Идентификатор кодека/Информация : UTF-8 Plain Text
Заголовок : Rus
Язык : Russian
Текст #3
Идентификатор : 6
Формат : UTF-8
Идентификатор кодека : S_TEXT/UTF8
Идентификатор кодека/Информация : UTF-8 Plain Text
Заголовок : Eng
Язык : English
Меню
00:00:00.000 : :Chapter 01
00:05:04.846 : :Chapter 02
00:07:58.310 : :Chapter 03
00:13:18.964 : :Chapter 04
00:21:10.685 : :Chapter 05
00:28:21.657 : :Chapter 06
00:37:07.765 : :Chapter 07
00:44:00.345 : :Chapter 08
00:48:14.974 : :Chapter 09
00:51:42.264 : :Chapter 10
00:56:51.032 : :Chapter 11
00:59:50.753 : :Chapter 12
01:03:31.766 : :Chapter 13
01:11:52.432 : :Chapter 14
01:16:36.131 : :Chapter 15
01:21:22.377 : :Chapter 16
01:28:31.139 : :Chapter 17
01:37:29.969 : :Chapter 18
01:48:44.643 : :Chapter 19
01:53:08.782 : :Chapter 20
01:59:05.930 : :Chapter 21
02:02:56.702 : :Chapter 22
02:15:45.261 : :Chapter 23
02:22:51.020 : :Chapter 24
02:36:21.120 : :Chapter 25

x264

x264 [info]: frame I:1183 Avg QP:13.17 size:241427
x264 [info]: frame P:52779 Avg QP:16.23 size: 95959
x264 [info]: frame B:170966 Avg QP:18.02 size: 32476
x264 [info]: consecutive B-frames: 1.9% 3.5% 7.3% 39.0% 14.8% 22.2% 4.8% 5.4% 1.1%
[Профиль] [ЛС]
Кто просматривает тему:

Форум Тема Автор Размер
BBC BBC: Дуб - искусство выживания / Oak Tree: Nature's Greatest Survivor (Ник Стэйси / Nic Stacey) [2016 г., Документальный, научно-популярный, история, HDTVRip 720p] skorpionN 2.08 GB
Путешествия и туризм Discovery. Выживание без купюр / Marooned with Ed Staffordl [S02] (2014) HDTV 1080p от GeneralFilm | P1 sergej644 8.84 GB
Discovery Discovery. Звездное выживание с Беаром Гриллсом / Running Wild Bear Grylls [S02] (2014) HDTVRip от GeneralFilm | P Russian Mafia 4.02 GB
Discovery Discovery. Звездное выживание с Беаром Гриллсом / Running Wild Bear Grylls [S02] (2015) HDTVRip 720p от GeneralFilm | P Russian Mafia 9.68 GB
National Geographic NG: Инстинкт выживания / Primal Survivor [сезон 1 cерии 1-9 из 9] (Энтони Баруэлл, Розалинд Бэйн / Anthony Barwell, Rosalind Bain) [2015 г., Документальный, SATRip] skorpionN 5.52 GB
Разная литература Алексей Ардашев - Базовая подготовка Спецназа. Экстремальное выживание (2016) FB2 достали все 17 MB
Документальные HD Амазония: Инструкция по выживанию / Amazonia (Тьерри Рагоберт / Thierry Ragobert) [2013, Документальный, приключения, семейный, BDRemux 1080p] TorrentFilm 16.08 GB
Документальные HD Амазония: Инструкция по выживанию / Amazonia (Тьерри Рагоберт / Thierry Ragobert) [2013, Документальный, приключения, семейный, BDRip 720p] TorrentFilm 5.19 GB
Показать сообщения:    

Текущее время: Сегодня 00:36

Часовой пояс: GMT



Вы не можете начинать темы
Вы не можете отвечать на сообщения
Вы не можете редактировать свои сообщения
Вы не можете удалять свои сообщения
Вы не можете голосовать в опросах
Вы не можете прикреплять файлы к сообщениям
Вы не можете скачивать файлы