Выживание мертвецов / Survival of the Dead (Джордж А. Ромеро / George A. Romero) [2009, США, ужасы, боевик, HDRip] MVO (Пятница) + Original Eng

 
Автор Сообщение

painkiller ®

Стаж: 2 года 3 месяца

Сообщений: 582



Награды: Нет

Торрент-статистика

Создавать темы 14-Авг-2014 13:01

[Цитировать]

Выживание мертвецов / Survival of the Dead
Страна: США
Жанр: ужасы, боевик
Год выпуска: 2009
Продолжительность: 01:29:52
Перевод: Профессиональный (многоголосый закадровый) "Intra Communications" по заказу ЗАО "Национальная спутниковая компания"
Cубтитры: нет
Оригинальная аудиодорожка: английский
Режиссер: Джордж А. Ромеро / George A. Romero
В ролях: Алан Ван Спрэнг, Кеннет Уэлш, Кэтлин Манро, Девон Бостик, Ричард Фицпатрик, Афена Карканис, Stefano Colacitti, Джорис Джарски, Эрик Вулф, Джулиан Ричингс
Описание: Обитатели идиллического островка у берегов Северной Америке подвергаются внезапной атаке зомби. Но отбиваясь от нежити, они, тем не менее, не теряют надежду отыскать средство, которое могло бы вернуть их озомбевших друзей родственников в нормальное состояние.
Сэмпл: http://multi-up.com/972868
Качество видео: HDRip
Формат видео: AVI
Видео: MPEG4, XviD, 720x304 (2.35), 23.976 fps, 1 656 Kbps (0.315 bit/pixel)
Аудио: AC-3, 48.0 KHz, 2 ch, 192 Kbps, CBR - русский
Аудио 2: AC-3, 48.0 KHz, 6 ch, 448 Kbps, CBR - английский

MediaInfo

Общее
Полное имя : K:\Выживание мертвецов.avi
Формат : AVI
Формат/Информация : Audio Video Interleave
Размер файла : 1,45 Гбайт
Продолжительность : 1 ч. 29 м.
Общий поток : 2310 Кбит/сек
Название фильма : Выживание мертвецов / Survival of the Dead (2009)
Программа кодирования : VirtualDubMod 1.5.10.2 (build 2540/release)
Библиотека кодирования : VirtualDubMod build 2540/release
Правообладатель : miha2154
Видео
Идентификатор : 0
Формат : MPEG-4 Visual
Профиль формата : Advanced Simple@L5
Параметр BVOP формата : 2
Параметр QPel формата : Нет
Параметр GMC формата : Без точки перехода
Параметр матрицы формата : Default (MPEG)
Идентификатор кодека : XVID
Идентификатор кодека/Подсказка : XviD
Продолжительность : 1 ч. 29 м.
Битрейт : 1656 Кбит/сек
Ширина : 720 пикселей
Высота : 304 пикселя
Соотношение сторон : 2,35:1
Частота кадров : 23,976 кадра/сек
Цветовое пространство : YUV
Субдискретизация насыщенности : 4:2:0
Битовая глубина : 8 бит
Тип развёртки : Прогрессивная
Метод сжатия : С потерями
Бит/(Пиксели*Кадры) : 0.315
Размер потока : 1,04 Гбайт (72%)
Библиотека кодирования : XviD 1.1.0 (UTC 2005-11-22)
Аудио #1
Идентификатор : 1
Формат : AC-3
Формат/Информация : Audio Coding 3
Расширение режима : CM (complete main)
Параметр Endianness формата : Big
Идентификатор кодека : 2000
Продолжительность : 1 ч. 29 м.
Вид битрейта : Постоянный
Битрейт : 192 Кбит/сек
Каналы : 2 канала
Расположение каналов : Front: L R
Частота : 48,0 КГц
Битовая глубина : 16 бит
Метод сжатия : С потерями
Размер потока : 123 Мбайт (8%)
Выравнивание : Разделение по промежуткам
Продолжительность промежутка : 42 мс. (1,00 видеокадр)
Время предзагрузки промежутка : 500 мс.
Заголовок : Профессиональный (многоголосый закадровый) ТК Пятница
Аудио #2
Идентификатор : 2
Формат : AC-3
Формат/Информация : Audio Coding 3
Расширение режима : CM (complete main)
Параметр Endianness формата : Big
Идентификатор кодека : 2000
Продолжительность : 1 ч. 29 м.
Вид битрейта : Постоянный
Битрейт : 448 Кбит/сек
Каналы : 6 каналов
Расположение каналов : Front: L C R, Side: L R, LFE
Частота : 48,0 КГц
Битовая глубина : 16 бит
Метод сжатия : С потерями
Размер потока : 288 Мбайт (19%)
Выравнивание : Разделение по промежуткам
Продолжительность промежутка : 42 мс. (1,00 видеокадр)
Время предзагрузки промежутка : 500 мс.
Заголовок : Английский

Скриншоты

[Профиль] [ЛС]

Создавать темы 06-Авг-2015 23:14 (спустя 11 месяцев 23 дня)

Топик был перенесен из форума Фильмы до 2014 года в форум Фильмы до 2012 года
sergej644
 

Создавать темы 12-Июн-2016 08:48 (спустя 1 год 9 месяцев)

Топик был перенесен из форума Фильмы 2011 года в форум Фильмы 2009 года
Russian Mafia
 
Кто просматривает тему:

Форум Тема Автор Размер
BBC BBC: Дуб - искусство выживания / Oak Tree: Nature's Greatest Survivor (Ник Стэйси / Nic Stacey) [2016 г., Документальный, научно-популярный, история, HDTVRip 720p] skorpionN 2.08 GB
Путешествия и туризм Discovery. Выживание без купюр / Marooned with Ed Staffordl [S02] (2014) HDTV 1080p от GeneralFilm | P1 sergej644 8.84 GB
Discovery Discovery. Звездное выживание с Беаром Гриллсом / Running Wild Bear Grylls [S02] (2014) HDTVRip от GeneralFilm | P Russian Mafia 4.02 GB
Discovery Discovery. Звездное выживание с Беаром Гриллсом / Running Wild Bear Grylls [S02] (2015) HDTVRip 720p от GeneralFilm | P Russian Mafia 9.68 GB
National Geographic NG: Инстинкт выживания / Primal Survivor [сезон 1 cерии 1-9 из 9] (Энтони Баруэлл, Розалинд Бэйн / Anthony Barwell, Rosalind Bain) [2015 г., Документальный, SATRip] skorpionN 5.52 GB
Разная литература Алексей Ардашев - Базовая подготовка Спецназа. Экстремальное выживание (2016) FB2 достали все 17 MB
Документальные HD Амазония: Инструкция по выживанию / Amazonia (Тьерри Рагоберт / Thierry Ragobert) [2013, Документальный, приключения, семейный, BDRemux 1080p] TorrentFilm 16.08 GB
Документальные HD Амазония: Инструкция по выживанию / Amazonia (Тьерри Рагоберт / Thierry Ragobert) [2013, Документальный, приключения, семейный, BDRip 720p] TorrentFilm 5.19 GB
Показать сообщения:    

Текущее время: Сегодня 21:00

Часовой пояс: GMT



Вы не можете начинать темы
Вы не можете отвечать на сообщения
Вы не можете редактировать свои сообщения
Вы не можете удалять свои сообщения
Вы не можете голосовать в опросах
Вы не можете прикреплять файлы к сообщениям
Вы не можете скачивать файлы