Выживание без купюр (5 серий) / Marooned with Ed Stafford (Эд Стаффорд / Ed Stafford) [2014, Документальный, Природа и животные, Путешествия, SATRip]

 
Автор Сообщение

reversefile ®

Пол:

Стаж: 4 года 5 месяцев

Сообщений: 842

Откуда: ReverseFile.org



Награды: Нет

Торрент-статистика

Создавать темы 24-Июл-2014 17:54

[Цитировать]

Выживание без купюр / Marooned with Ed Stafford
Дата/Год выпуска: 2014
Страна: Великобритания
Жанр: Документальный, Природа и животные, Путешествия
Продолжительность: 5 x 43 мин.
Перевод: Профессиональный (одноголосый)
Режиссер: Эд Стаффорд / Ed Stafford
Телеканал: Discovery
Описание: Документально-приключенческий английский сериал «Выживание без купюр» - это несколько ярких серий о невероятно экстремальных попытках англичанина Эда Стаффорда выжить в дикой природе. При этом у него не будет с собой ни питья, ни еды, ни одежды, ни специальных орудий для какой-либо деятельности, ни каких-либо благ цивилизации.
А находиться один на один с природой и стихией в весьма опасных и необитаемых местах ему придется, ни много ни мало, десять суток. Территории, которые исследует бесстрашный Эд очень разнообразны по климату, флоре и фауне, особенностям местности.
Это, например, не имеющие ничего общего друг с другом страны Ботствана, и Венесуэлла, Австралия и Румыния, а также экзотические дикие джунгли Борнео. Эд подробно и без приукрашивания будет освещать свой необычный опыт, находить множество парадоксальных и невероятных способов выживания в дикой первозданной природе.
качество: SATRip
формат: AVI
Видео: XviD, 720x400 (16:9), ~ 1520 Кбит/с, 25000 fps
Аудио: MP3, 128 Кбит/с, 2 ch, 44.1 kHz

Список выпусков/серий

1. Венесуэла;
2. Ботсвана;
3. Румыния;
4. Австралия;
5. Борнео

MediaInfo

D:\Downloads\Marooned with Ed Stafford\Marooned with Ed Stafford. 1. Venezuela 2014.SATRip.HitWay.avi General Complete name : D:\Downloads\Marooned with Ed Stafford\Marooned with Ed Stafford. 1. Venezuela 2014.SATRip.HitWay.avi Format : AVI Format/Info : Audio Video Interleave File size : 519 MiB Duration : 43mn 58s Overall bit rate : 1 649 Kbps Writing application : VirtualDubMod 1.5.10.3 | www.virtualdub-fr.org || (build 2550/release) Writing library : VirtualDubMod build 2550/release Video #0 ID : 0 Format : MPEG-4 Visual Format profile : AdvancedSimple@L5 Format settings, BVOP : Yes Format settings, QPel : No Format settings, GMC : No warppoints Format settings, Matrix : Default (H.263) Codec ID : XVID Codec ID/Hint : XviD Duration : 43mn 58s Bit rate : 1 519 Kbps Width : 720 pixels Height : 400 pixels Display aspect ratio : 16:9 Frame rate : 25.000 fps Resolution : 24 bits Colorimetry : 4:2:0 Scan type : Progressive Bits/(Pixel*Frame) : 0.211 Stream size : 478 MiB (92%) Writing library : XviD 1.2.1 (UTC 2008-12-04) Audio #1 ID : 1 Format : MPEG Audio Format version : Version 1 Format profile : Layer 3 Codec ID : 55 Codec ID/Hint : MP3 Duration : 43mn 58s Bit rate mode : Variable Bit rate : 118 Kbps Nominal bit rate : 128 Kbps Channel(s) : 2 channels Sampling rate : 44.1 KHz Resolution : 16 bits Stream size : 37.1 MiB (7%) Alignment : Aligned on interleaves Interleave, duration : 26 ms (0.65 video frame) Interleave, preload duration : 505 ms Writing library : LAME3.99 Encoding settings : -m j -V 4 -q 2 -lowpass 17 --abr 128

Скриншоты

[Профиль] [ЛС]
Кто просматривает тему:

Форум Тема Автор Размер
BBC BBC: Дуб - искусство выживания / Oak Tree: Nature's Greatest Survivor (Ник Стэйси / Nic Stacey) [2016 г., Документальный, научно-популярный, история, HDTVRip 720p] skorpionN 2.08 GB
Путешествия и туризм Discovery. Выживание без купюр / Marooned with Ed Staffordl [S02] (2014) HDTV 1080p от GeneralFilm | P1 sergej644 8.84 GB
Discovery Discovery. Звездное выживание с Беаром Гриллсом / Running Wild Bear Grylls [S02] (2014) HDTVRip от GeneralFilm | P Russian Mafia 4.02 GB
Discovery Discovery. Звездное выживание с Беаром Гриллсом / Running Wild Bear Grylls [S02] (2015) HDTVRip 720p от GeneralFilm | P Russian Mafia 9.68 GB
National Geographic NG: Инстинкт выживания / Primal Survivor [сезон 1 cерии 1-9 из 9] (Энтони Баруэлл, Розалинд Бэйн / Anthony Barwell, Rosalind Bain) [2015 г., Документальный, SATRip] skorpionN 5.52 GB
Разная литература Алексей Ардашев - Базовая подготовка Спецназа. Экстремальное выживание (2016) FB2 достали все 17 MB
Документальные HD Амазония: Инструкция по выживанию / Amazonia (Тьерри Рагоберт / Thierry Ragobert) [2013, Документальный, приключения, семейный, BDRemux 1080p] TorrentFilm 16.08 GB
Документальные HD Амазония: Инструкция по выживанию / Amazonia (Тьерри Рагоберт / Thierry Ragobert) [2013, Документальный, приключения, семейный, BDRip 720p] TorrentFilm 5.19 GB
Показать сообщения:    

Текущее время: Сегодня 09:55

Часовой пояс: GMT



Вы не можете начинать темы
Вы не можете отвечать на сообщения
Вы не можете редактировать свои сообщения
Вы не можете удалять свои сообщения
Вы не можете голосовать в опросах
Вы не можете прикреплять файлы к сообщениям
Вы не можете скачивать файлы