Вход в лабиринт (Валерий Кремнев) [1989, детектив, экранизация, DVB]

 
Автор Сообщение

reversefile ®

Пол:

Стаж: 4 года 5 месяцев

Сообщений: 842

Откуда: ReverseFile.org



Награды: Нет

Торрент-статистика

Создавать темы 25-Июл-2014 01:16

[Цитировать]

Вход в лабиринт
Запись сделана и любезно предоставлена коллегой ItarTass
Жанр: детектив, экранизация
Год выпуска: 1989
Продолжительность: 01:10:22 + 01:06:55 + 01:13:12 + 01:05:10 + 01:05:32
Режиссёр: Валерий Кремнев
В ролях: Игорь Костолевский, Микк Микивер, Юрий Назаров, Михаил Глузский, Борис Романов, Ивар Калныньш, Юрий Горобец, Владимир Носик, Леонид Куравлёв, Татьяна Назарова (III), Жанна Прохоренко, Наталья Хорохорина, Наталья Аринбасарова, Лариса Удовиченко, Капитолина Ильенко, Лев Борисов, Александр Новиков (II), Борис Беккер, Владимир Плотников, Владимир Никитин, Донатас Банионис, Валентин Никулин, Антон Карастоянов, Добре Добрев, Евгений Дворжецкий, Виллор Кузнецов, Хейно Мандри, Елена Яралова, Владимир Трошин, Семён Фарада, Альгимантас Масюлис, Рейн Арен, Георгий Тейх, Александр Белявский, Сергей Газаров, Роман Филиппов, Зоя Василькова, Марина Устименко, Мати Клоорен, Алеша Бехар, Владимир Данчев, Георгий Тотев, Евгений Контрерас, Бистра Марчева, Михаил Поляков (III)
Описание: Фильм состоит из нескольких пластов.
Самая простая — это детективная фабула о мошенниках, которые используя удостоверение капитана милиции вламываются в квартиры нечестных людей и под видом обыска грабят их. Следователь Муромцев, расследуя должностное преступление участкового милиционера Позднякова, выходит на дельцов теневой экономики.
А «вторая фабула» у этой ленты — сюжетная линия о конфликте двух учёных-изобретателей чудо-препарата метапроптизола, названного за рубежом «лекарством против страха». Именно этим лекарством преступники опоили несчастного участкового милиционера Позднякова, отняв у него злополучное удостоверение и табельное оружие…
Параллельно с основным действием развивается средневековый сюжет с врачом-алхимиком Парацельсом, портрет которого висит в комнате одного из героев современной истории, талантливого ученого-неудачника Лыжина.
Доп. информация: Запись потока *.ts со спутника Ямал 202, 49° в.д., ремукс в *.mpg программой VideoReDo.
Качество видео: DVB
Формат видео: MPEG-PS
Видео: MPEG2 Video, 704(768)x576 (4:3), 25,000 кадров/сек, 4840 Кбит/сек
Аудио: MPEG Audio, 48,0 КГц, 192 Кбит/сек, 2 канала

MediaInfo

Общее
Полное имя : D:\Torrent\ВХОД В ЛАБИРИНТ\ВХОД В ЛАБИРИНТ 1 (ZVEZDA).mpg
Формат : MPEG-PS
Размер файла : 2,51 Гбайт
Продолжительность : 1 ч. 10 м.
Режим общего битрейта : Переменный
Общий поток : 5115 Кбит/сек
Видео
Идентификатор : 224 (0xE0)
Формат : MPEG Video
Версия формата : Version 2
Профиль формата : Main@Main
Параметр BVOP формата : Да
Параметр матрицы формата : Выборочная
Параметр GOP формата : M=3, N=24
Продолжительность : 1 ч. 10 м.
Вид битрейта : Переменный
Битрейт : 4840 Кбит/сек
Ширина : 704 пикселя
Высота : 576 пикселей
Соотношение сторон : 4:3
Частота кадров : 25,000 кадров/сек
Стандарт вещания : PAL
Цветовое пространство : YUV
Субдискретизация насыщенности : 4:2:0
Битовая глубина : 8 бит
Тип развёртки : Чересстрочная
Порядок развёртки : Верхнее поле первое
Метод сжатия : С потерями
Бит/(Пиксели*Кадры) : 0.477
Временной код первого кадра : 00:00:00:00
Оригинал временного кода : Group of pictures header
Размер потока : 2,37 Гбайт (94%)
Аудио
Идентификатор : 192 (0xC0)
Формат : MPEG Audio
Версия формата : Version 1
Профиль формата : Layer 2
Продолжительность : 1 ч. 10 м.
Вид битрейта : Постоянный
Битрейт : 192 Кбит/сек
Каналы : 2 канала
Частота : 48,0 КГц
Метод сжатия : С потерями
Задержка видео : 540 мс.
Размер потока : 96,6 Мбайт (4%)
Общее
Полное имя : D:\Torrent\ВХОД В ЛАБИРИНТ\ВХОД В ЛАБИРИНТ 2 (ZVEZDA).mpg
Формат : MPEG-PS
Размер файла : 2,39 Гбайт
Продолжительность : 1 ч. 6 м.
Режим общего битрейта : Переменный
Общий поток : 5115 Кбит/сек
Видео
Идентификатор : 224 (0xE0)
Формат : MPEG Video
Версия формата : Version 2
Профиль формата : Main@Main
Параметр BVOP формата : Да
Параметр матрицы формата : Выборочная
Параметр GOP формата : M=3, N=24
Продолжительность : 1 ч. 6 м.
Вид битрейта : Переменный
Битрейт : 4840 Кбит/сек
Ширина : 704 пикселя
Высота : 576 пикселей
Соотношение сторон : 4:3
Частота кадров : 25,000 кадров/сек
Стандарт вещания : PAL
Цветовое пространство : YUV
Субдискретизация насыщенности : 4:2:0
Битовая глубина : 8 бит
Тип развёртки : Чересстрочная
Порядок развёртки : Верхнее поле первое
Метод сжатия : С потерями
Бит/(Пиксели*Кадры) : 0.477
Временной код первого кадра : 00:00:00:00
Оригинал временного кода : Group of pictures header
Размер потока : 2,25 Гбайт (94%)
Аудио
Идентификатор : 192 (0xC0)
Формат : MPEG Audio
Версия формата : Version 1
Профиль формата : Layer 2
Продолжительность : 1 ч. 6 м.
Вид битрейта : Постоянный
Битрейт : 192 Кбит/сек
Каналы : 2 канала
Частота : 48,0 КГц
Метод сжатия : С потерями
Задержка видео : 620 мс.
Размер потока : 91,9 Мбайт (4%)
Общее
Полное имя : D:\Torrent\ВХОД В ЛАБИРИНТ\ВХОД В ЛАБИРИНТ 3 (ZVEZDA).mpg
Формат : MPEG-PS
Размер файла : 2,62 Гбайт
Продолжительность : 1 ч. 13 м.
Режим общего битрейта : Переменный
Общий поток : 5115 Кбит/сек
Видео
Идентификатор : 224 (0xE0)
Формат : MPEG Video
Версия формата : Version 2
Профиль формата : Main@Main
Параметр BVOP формата : Да
Параметр матрицы формата : Выборочная
Параметр GOP формата : Variable
Продолжительность : 1 ч. 13 м.
Вид битрейта : Переменный
Битрейт : 4840 Кбит/сек
Ширина : 704 пикселя
Высота : 576 пикселей
Соотношение сторон : 4:3
Частота кадров : 25,000 кадров/сек
Стандарт вещания : PAL
Цветовое пространство : YUV
Субдискретизация насыщенности : 4:2:0
Битовая глубина : 8 бит
Тип развёртки : Чересстрочная
Порядок развёртки : Верхнее поле первое
Метод сжатия : С потерями
Бит/(Пиксели*Кадры) : 0.477
Временной код первого кадра : 00:00:00:00
Оригинал временного кода : Group of pictures header
Размер потока : 2,47 Гбайт (94%)
Аудио
Идентификатор : 192 (0xC0)
Формат : MPEG Audio
Версия формата : Version 1
Профиль формата : Layer 2
Продолжительность : 1 ч. 13 м.
Вид битрейта : Постоянный
Битрейт : 192 Кбит/сек
Каналы : 2 канала
Частота : 48,0 КГц
Метод сжатия : С потерями
Задержка видео : 260 мс.
Размер потока : 101 Мбайт (4%)
Общее
Полное имя : D:\Torrent\ВХОД В ЛАБИРИНТ\ВХОД В ЛАБИРИНТ 4 (ZVEZDA).mpg
Формат : MPEG-PS
Размер файла : 2,33 Гбайт
Продолжительность : 1 ч. 5 м.
Режим общего битрейта : Переменный
Общий поток : 5116 Кбит/сек
Видео
Идентификатор : 224 (0xE0)
Формат : MPEG Video
Версия формата : Version 2
Профиль формата : Main@Main
Параметр BVOP формата : Да
Параметр матрицы формата : Выборочная
Параметр GOP формата : Variable
Продолжительность : 1 ч. 5 м.
Вид битрейта : Переменный
Битрейт : 4840 Кбит/сек
Ширина : 704 пикселя
Высота : 576 пикселей
Соотношение сторон : 4:3
Частота кадров : 25,000 кадров/сек
Стандарт вещания : PAL
Цветовое пространство : YUV
Субдискретизация насыщенности : 4:2:0
Битовая глубина : 8 бит
Тип развёртки : Чересстрочная
Порядок развёртки : Верхнее поле первое
Метод сжатия : С потерями
Бит/(Пиксели*Кадры) : 0.477
Временной код первого кадра : 00:00:00:00
Оригинал временного кода : Group of pictures header
Размер потока : 2,19 Гбайт (94%)
Аудио
Идентификатор : 192 (0xC0)
Формат : MPEG Audio
Версия формата : Version 1
Профиль формата : Layer 2
Продолжительность : 1 ч. 5 м.
Вид битрейта : Постоянный
Битрейт : 192 Кбит/сек
Каналы : 2 канала
Частота : 48,0 КГц
Метод сжатия : С потерями
Задержка видео : 660 мс.
Размер потока : 89,5 Мбайт (4%)
Общее
Полное имя : D:\Torrent\ВХОД В ЛАБИРИНТ\ВХОД В ЛАБИРИНТ 5 (ZVEZDA).mpg
Формат : MPEG-PS
Размер файла : 2,34 Гбайт
Продолжительность : 1 ч. 5 м.
Режим общего битрейта : Переменный
Общий поток : 5115 Кбит/сек
Видео
Идентификатор : 224 (0xE0)
Формат : MPEG Video
Версия формата : Version 2
Профиль формата : Main@Main
Параметр BVOP формата : Да
Параметр матрицы формата : Выборочная
Параметр GOP формата : M=3, N=24
Продолжительность : 1 ч. 5 м.
Вид битрейта : Переменный
Битрейт : 4840 Кбит/сек
Ширина : 704 пикселя
Высота : 576 пикселей
Соотношение сторон : 4:3
Частота кадров : 25,000 кадров/сек
Стандарт вещания : PAL
Цветовое пространство : YUV
Субдискретизация насыщенности : 4:2:0
Битовая глубина : 8 бит
Тип развёртки : Чересстрочная
Порядок развёртки : Верхнее поле первое
Метод сжатия : С потерями
Бит/(Пиксели*Кадры) : 0.477
Временной код первого кадра : 00:00:00:00
Оригинал временного кода : Group of pictures header
Размер потока : 2,21 Гбайт (94%)
Аудио
Идентификатор : 192 (0xC0)
Формат : MPEG Audio
Версия формата : Version 1
Профиль формата : Layer 2
Продолжительность : 1 ч. 5 м.
Вид битрейта : Постоянный
Битрейт : 192 Кбит/сек
Каналы : 2 канала
Частота : 48,0 КГц
Метод сжатия : С потерями
Задержка видео : 660 мс.
Размер потока : 90,0 Мбайт (4%)
[Профиль] [ЛС]

Создавать темы 06-Авг-2015 22:06 (спустя 1 год)

Топик был перенесен из форума Кино СССР в форум Кино СССР
sergej644
 
Кто просматривает тему:

Показать сообщения:    

Текущее время: Сегодня 08:11

Часовой пояс: GMT



Вы не можете начинать темы
Вы не можете отвечать на сообщения
Вы не можете редактировать свои сообщения
Вы не можете удалять свои сообщения
Вы не можете голосовать в опросах
Вы не можете прикреплять файлы к сообщениям
Вы не можете скачивать файлы