Вулкан, изменивший мир / The Volcano that Changed the World (Elmar Bartlmae & Florian Breier) [2017 г., Документальный, игровой, история, исследования, археология, DVB]

 
Автор Сообщение

skorpionN ®

Пол:

Стаж: 2 года 8 месяцев

Сообщений: 858



Награды: 4 (Подробнее)

Mega Seeder 1 (Количество: 1) Mega Seeder 2 (Количество: 1) Mega Seeder 3 (Количество: 1)
Торрент-статистика

Создавать темы 10-Сен-2017 12:11

[Цитировать]

Вулкан, изменивший мир / The Volcano that Changed the World
Год выпуска: 2017
Страна: Германия, Франция, Leonardo Film GmbH, Arte
Жанр: Документальный, игровой, история, исследования, археология
Продолжительность: 00:52:01
Перевод: Профессиональный (двухголосый)
Режиссер: Elmar Bartlmae & Florian Breier
Описание: 10 апреля 1815 года извержение вулкана Тамбора в Индонезии стало началом глобальной катастрофы. Это было крупнейшее извержение в истории. На острове вулкан убил 100 000 человек, больше чем во время любого другого извержения в истории. Но это было лишь начало. Извержение привело к изменению климата, в северном полушарии дождь и заморозки уничтожили посевы, в Европе начался голод, прокатилась волна эмиграции, а оставшиеся боролись за выживание или бунтовали. Но бунты и голод это не все проблемы. Ужасные болезни убили сотни тысяч человек. По всему миру распространялась холера, которая стала чумой ХIХ века. Как же так вышло, что всего одно извержение могло стать причиной бунтов, смертей и страданий на другом конце света?
Перемена климата повлияла на многие поколения. Она стала даже истоком промышленной революции и политических реформ во многих странах. Спустя 200 лет после извержения историки, археологи, геологи, климатологи и генетики впервые изучают то, как этот вулкан изменил мир.
Качество: DVB
Формат: MPEG -TS
Видео кодек: MPEG2
Аудио кодек: MPEG Audio
Видео: 720х576 (4:3) анаморфный (768x576) 25fps ~1975 Kbps
Аудио: MPEG Audio 2 2ch, 48kHz, 192 kbps

Скриншоты


MediaInfo:

Format : MPEG-TS
File size : 849 MiB
Duration : 52 min 1 s
Overall bit rate mode : Variable
Overall bit rate : 2 282 kb/s
Video
ID : 222 (0xDE)
Menu ID : 1822 (0x71E)
Format : MPEG Video
Format version : Version 2
Format profile : Main@Main
Format settings, BVOP : Yes
Format settings, Matrix : Custom
Format settings, GOP : M=3, N=15
Format settings, picture struc : Frame
Codec ID : 2
Duration : 52 min 1 s
Bit rate mode : Variable
Bit rate : 1 975 kb/s
Maximum bit rate : 9 800 kb/s
Width : 720 pixels
Height : 576 pixels
Display aspect ratio : 4:3
Frame rate : 25.000 FPS
Standard : PAL
Color space : YUV
Chroma subsampling : 4:2:0
Bit depth : 8 bits
Scan type : Interlaced
Scan order : Top Field First
Compression mode : Lossy
Bits/(Pixel*Frame) : 0.190
Time code of first frame : 00:00:00:00
Time code source : Group of pictures header
GOP, Open/Closed : Open
GOP, Open/Closed of first fram : Closed
Stream size : 735 MiB (87%)
Audio
ID : 322 (0x142)
Menu ID : 1822 (0x71E)
Format : MPEG Audio
Format version : Version 1
Format profile : Layer 2
Codec ID : 3
Duration : 52 min 1 s
Bit rate mode : Constant
Bit rate : 192 kb/s
Channel(s) : 2 channels
Sampling rate : 48.0 kHz
Compression mode : Lossy
Stream size : 71.4 MiB (8%)
Language : Russian
[Профиль] [ЛС]
Показать сообщения:    

Текущее время: Сегодня 07:27

Часовой пояс: GMT



Вы не можете начинать темы
Вы не можете отвечать на сообщения
Вы не можете редактировать свои сообщения
Вы не можете удалять свои сообщения
Вы не можете голосовать в опросах
Вы не можете прикреплять файлы к сообщениям
Вы не можете скачивать файлы