Вудлон / Woodlawn (2015) BDRip 1080p | P | iTunes

 
Автор Сообщение

достали все ®

Пол:

Стаж: 1 год 8 месяцев

Сообщений: 6571



Награды: 12 (Подробнее)

Top Releaser 3 (Количество: 1) Mega Releaser 1 (Количество: 1) Mega Seeder 5 (Количество: 1)
Торрент-статистика

Создавать темы 09-Май-2016 02:51

[Цитировать]

Информация о фильме
Название: Вудлон
Оригинальное название: Woodlawn
Год выхода: 2015
Жанр: драма, спорт
Режиссер: Эндрю Эрвин, Эрвин Бразерс
В ролях: Шон Эстин, Ник Бишоп, Калеб Кастилло, Шерри Шеперд, Джон Войт, Джой Брансон, Лэнс Э. Николс, С. Томас Хауэлл, Кевин Сайзмор, Девон Франклин
О фильме: Одаренный молодой футболист, опираясь на свой талант и веру, борется с этнической нетерпимостью, как на поле, так и вне его.

Выпущено: США / Cresent City Pictures, Red Sky Studios
Продолжительность: 02:03:57
Озвучивание: Профессиональное (многоголосое) [iTunes]
Файл
Формат: MKV
Качество: BDRip 1080p
Видео: MPEG-4 AVC, 13400 kb/s, 1920x800
Аудио: Russian: AC3, 384 kb/s (6 ch) / English: AC3, 640 kb/s (6 ch)
Субтитры: English

MI

x264 Info:
x264 [info]: frame I:1214 Avg QP:15.09 size:198306
x264 [info]: frame P:41066 Avg QP:16.67 size: 98666
x264 [info]: frame B:136039 Avg QP:18.33 size: 61647
x264 [info]: consecutive B-frames: 2.9% 4.1% 14.2% 14.9% 15.9% 31.4% 5.1% 2.2% 2.3% 1.5% 2.1% 2.4% 1.0%
Общее
Уникальный идентификатор : 192979018091889074946447628091289317897 (0x912E682E68FA9D6BB388130497913209)
Полное имя : D:загрузкиWodlawn.2015.P.1080p.BluRay.mkv
Формат : Matroska
Версия формата : Version 4 / Version 2
Размер файла : 12,7 Гбайт
Продолжительность : 2 ч. 3 м.
Общий поток : 14,7 Мбит/сек
Название фильма : Wodlawn.2015.P.1080p.BluRay
Дата кодирования : UTC 2016-05-09 00:00:09
Программа кодирования : mkvmerge v8.3.0 ('Over the Horizon') 64bit
Библиотека кодирования : libebml v1.3.1 + libmatroska v1.4.2
Видео
Идентификатор : 1
Формат : AVC
Формат/Информация : Advanced Video Codec
Профиль формата : High@L4.1
Параметр CABAC формата : Да
Параметр ReFrames формата : 5 кадров
Идентификатор кодека : V_MPEG4/ISO/AVC
Продолжительность : 2 ч. 3 м.
Битрейт : 13,3 Мбит/сек
Ширина : 1920 пикселей
Высота : 800 пикселей
Соотношение сторон : 2,40:1
Режим частоты кадров : Постоянный
Частота кадров : 23,976 кадра/сек
Цветовое пространство : YUV
Субдискретизация насыщенности : 4:2:0
Битовая глубина : 8 бит
Тип развёртки : Прогрессивная
Бит/(Пиксели*Кадры) : 0.362
Размер потока : 11,6 Гбайт (91%)
Библиотека кодирования : x264 core 146 r2538 121396c
Настройки программы : cabac=1 / ref=5 / deblock=1:-3:-3 / analyse=0x3:0x133 / me=umh / subme=11 / psy=1 / psy_rd=1.00:0.00 / mixed_ref=1 / me_range=32 / chroma_me=1 / trellis=2 / 8x8dct=1 / cqm=0 / deadzone=21,11 / fast_pskip=0 / chroma_qp_offset=-2 / threads=60 / lookahead_threads=6 / sliced_threads=0 / nr=0 / decimate=0 / interlaced=0 / bluray_compat=0 / constrained_intra=0 / bframes=12 / b_pyramid=2 / b_adapt=2 / b_bias=0 / direct=3 / weightb=1 / open_gop=0 / weightp=2 / keyint=240 / keyint_min=23 / scenecut=40 / intra_refresh=0 / rc_lookahead=150 / rc=crf / mbtree=0 / crf=16.9 / qcomp=0.60 / qpmin=0 / qpmax=69 / qpstep=4 / vbv_maxrate=62500 / vbv_bufsize=78125 / crf_max=0.0 / nal_hrd=none / filler=0 / ip_ratio=1.40 / pb_ratio=1.30 / aq=1:0.80
Default : Да
Forced : Нет
Аудио #1
Идентификатор : 2
Формат : AC-3
Формат/Информация : Audio Coding 3
Расширение режима : CM (complete main)
Параметр Endianness формата : Big
Идентификатор кодека : A_AC3
Продолжительность : 2 ч. 3 м.
Вид битрейта : Постоянный
Битрейт : 384 Кбит/сек
Каналы : 6 каналов
Расположение каналов : Front: L C R, Side: L R, LFE
Частота : 48,0 КГц
Битовая глубина : 16 бит
Метод сжатия : С потерями
Размер потока : 340 Мбайт (3%)
Заголовок : iTunes
Язык : Russian
Default : Да
Forced : Нет
Аудио #2
Идентификатор : 3
Формат : AC-3
Формат/Информация : Audio Coding 3
Расширение режима : CM (complete main)
Параметр Endianness формата : Big
Идентификатор кодека : A_AC3
Продолжительность : 2 ч. 3 м.
Вид битрейта : Постоянный
Битрейт : 640 Кбит/сек
Каналы : 6 каналов
Расположение каналов : Front: L C R, Side: L R, LFE
Частота : 48,0 КГц
Битовая глубина : 16 бит
Метод сжатия : С потерями
Размер потока : 567 Мбайт (4%)
Язык : English
Default : Нет
Forced : Нет
Текст
Идентификатор : 4
Формат : UTF-8
Идентификатор кодека : S_TEXT/UTF8
Идентификатор кодека/Информация : UTF-8 Plain Text
Язык : English
Default : Нет
Forced : Нет
Меню
00:00:00.000 : en:Chapter 1
00:04:12.169 : en:Chapter 2
00:09:29.778 : en:Chapter 3
00:13:29.475 : en:Chapter 4
00:18:34.196 : en:Chapter 5
00:23:05.301 : en:Chapter 6
00:28:09.438 : en:Chapter 7
00:34:40.245 : en:Chapter 8
00:40:50.156 : en:Chapter 9
00:49:07.444 : en:Chapter 10
00:56:18.375 : en:Chapter 11
01:01:53.376 : en:Chapter 12
01:05:37.058 : en:Chapter 13
01:12:30.304 : en:Chapter 14
01:17:38.863 : en:Chapter 15
01:23:43.310 : en:Chapter 16
01:28:46.947 : en:Chapter 17
01:34:07.600 : en:Chapter 18
01:43:15.314 : en:Chapter 19
01:51:11.957 : en:Chapter 20

Скриншоты




[Профиль] [ЛС]
Показать сообщения:    

Текущее время: Сегодня 16:40

Часовой пояс: GMT



Вы не можете начинать темы
Вы не можете отвечать на сообщения
Вы не можете редактировать свои сообщения
Вы не можете удалять свои сообщения
Вы не можете голосовать в опросах
Вы не можете прикреплять файлы к сообщениям
Вы не можете скачивать файлы