Вудлон / Woodlawn (2015) BDRip 720p от AleksSin | L2

 
Автор Сообщение

AleksSin ®

Пол:

Стаж: 6 лет

Сообщений: 218



Награды: 4 (Подробнее)

Mega Seeder 4 (Количество: 1) Mega Seeder 2 (Количество: 1) Mega Seeder 1 (Количество: 1)
Торрент-статистика

Создавать темы 28-Янв-2016 21:57

[Цитировать]

Вудлон / Woodlawn«One Hope. One Truth. One Way»Год выхода: 2015
Жанр: драма, спорт
Страна: США
Студия: Cresent City Pictures, Red Sky Studios
Продолжительность: 02:03:57
Перевод: Любительский (двухголосый) Parovoz Production ( Без рекламы.)
Субтитры: Английские
Режиссер: Эндрю Эрвин, Эрвин Бразерс
В ролях: Шон Эстин, Ник Бишоп, Калеб Кастилло, Шерри Шеперд, Джон Войт, Джой Брансон, Лэнс Э. Николс, Си Томас Хауэлл, Кевин Сайзмор, Девон Франклин
О фильме:
Вдохновляющий фильм, основанный на реальной истории любви и единения в школе, раздираемой ненавистью и расизмом в 1970-х годах.
В 1973 году духовное пробуждение захватило сердца почти каждого игрока школьной футбольной команды "Вудлон", включая тренера Тэнди Гералда. Их вера в Бога и единство приводит к небывалому успеху и рождению первой афроамериканской суперзвезды Тони Натана. Именно вера в Бога дает успех ему и всей команде.

Файл
Кодек: x264
Качество: BDRip 720p (Исх. Blu-Ray Remux (1080p))
Видео: 1280x534 (2.40:1) at 23.976 fps, AVC at 4882 kbps avg, 0.298 bit/pixel
Аудио #1: Русский (AC3, 2 ch, 48,0 КГц, 16 бит, 192 Кбит/с) - Любительский (двухголосый закадровый)
Аудио #2: Английский (AC3, 6 ch, 48,0 КГц, 16 бит, 640 Кбит/с) - Оригинал
Навигация по главам: Есть
Семпл

MediaInfo

Log
x264 [info]: frame I:1458 Avg QP:15.27 size: 89092
x264 [info]: frame P:39696 Avg QP:16.55 size: 42221
x264 [info]: frame B:137164 Avg QP:17.83 size: 20691
x264 [info]: consecutive B-frames: 2.2% 4.1% 8.2% 20.4% 17.9% 34.3% 6.0% 3.0% 3.8%
Общее
Уникальный идентификатор : 218356194455021552317279696643607763465 (0xA445DF937E94C0AC8171B286EBF01A09)
Полное имя : S:ФильмыВудлон. 2015. BDRip 720p (AleksSin).mkv
Формат : Matroska
Версия формата : Version 4 / Version 2
Размер файла : 5,05 Гбайт
Продолжительность : 2 ч. 3 м.
Общий поток : 5830 Кбит/сек
Дата кодирования : UTC 2016-01-28 20:46:59
Программа кодирования : mkvmerge v8.1.0 ('Psychedelic Postcard') 32bit
Библиотека кодирования : libebml v1.3.1 + libmatroska v1.4.2
DURATION : 01:57:49.769000000
NUMBER_OF_FRAMES : 1612
NUMBER_OF_BYTES : 49377
_STATISTICS_WRITING_APP : mkvmerge v8.1.0 ('Psychedelic Postcard') 32bit
_STATISTICS_WRITING_DATE_UTC : 2016-01-28 20:46:59
_STATISTICS_TAGS : BPS DURATION NUMBER_OF_FRAMES NUMBER_OF_BYTES
Видео
Идентификатор : 1
Формат : AVC
Формат/Информация : Advanced Video Codec
Профиль формата : High@L4.1
Параметр CABAC формата : Да
Параметр ReFrames формата : 12 кадров
Идентификатор кодека : V_MPEG4/ISO/AVC
Продолжительность : 2 ч. 3 м.
Битрейт : 4882 Кбит/сек
Ширина : 1280 пикселей
Высота : 534 пикселя
Соотношение сторон : 2,40:1
Режим частоты кадров : Постоянный
Частота кадров : 23,976 кадра/сек
Цветовое пространство : YUV
Субдискретизация насыщенности : 4:2:0
Битовая глубина : 8 бит
Тип развёртки : Прогрессивная
Бит/(Пиксели*Кадры) : 0.298
Размер потока : 4,23 Гбайт (84%)
Библиотека кодирования : x264 core 148 r2638 7599210
Настройки программы : cabac=1 / ref=12 / deblock=1:-3:-3 / analyse=0x3:0x133 / me=umh / subme=11 / psy=1 / psy_rd=1.00:0.20 / mixed_ref=1 / me_range=32 / chroma_me=1 / trellis=2 / 8x8dct=1 / cqm=0 / deadzone=21,11 / fast_pskip=0 / chroma_qp_offset=-2 / threads=12 / lookahead_threads=2 / sliced_threads=0 / nr=0 / decimate=1 / interlaced=0 / bluray_compat=0 / constrained_intra=0 / bframes=8 / b_pyramid=2 / b_adapt=2 / b_bias=0 / direct=1 / weightb=1 / open_gop=0 / weightp=2 / keyint=250 / keyint_min=23 / scenecut=40 / intra_refresh=0 / rc_lookahead=60 / rc=crf / mbtree=0 / crf=17.5 / qcomp=0.60 / qpmin=0 / qpmax=69 / qpstep=4 / vbv_maxrate=50000 / vbv_bufsize=62500 / crf_max=0.0 / nal_hrd=none / filler=0 / ip_ratio=1.40 / pb_ratio=1.30 / aq=3:1.00
Default : Да
Forced : Нет
Аудио #1
Идентификатор : 2
Формат : AC-3
Формат/Информация : Audio Coding 3
Расширение режима : CM (complete main)
Параметр Endianness формата : Big
Идентификатор кодека : A_AC3
Продолжительность : 2 ч. 3 м.
Вид битрейта : Постоянный
Битрейт : 192 Кбит/сек
Каналы : 2 канала
Расположение каналов : Front: L R
Частота : 48,0 КГц
Битовая глубина : 16 бит
Метод сжатия : С потерями
Размер потока : 170 Мбайт (3%)
Default : Нет
Forced : Нет
Аудио #2
Идентификатор : 3
Формат : AC-3
Формат/Информация : Audio Coding 3
Расширение режима : CM (complete main)
Параметр Endianness формата : Big
Идентификатор кодека : A_AC3
Продолжительность : 2 ч. 3 м.
Вид битрейта : Постоянный
Битрейт : 640 Кбит/сек
Каналы : 6 каналов
Расположение каналов : Front: L C R, Side: L R, LFE
Частота : 48,0 КГц
Битовая глубина : 16 бит
Метод сжатия : С потерями
Размер потока : 567 Мбайт (11%)
Default : Да
Forced : Нет
Текст
Идентификатор : 4
Формат : UTF-8
Идентификатор кодека : S_TEXT/UTF8
Идентификатор кодека/Информация : UTF-8 Plain Text
Default : Да
Forced : Нет
Меню
00:00:00.000 : en:
00:04:12.169 : en:
00:09:29.778 : en:
00:13:29.475 : en:
00:18:34.195 : en:
00:23:05.300 : en:
00:28:09.438 : en:
00:34:40.244 : en:
00:40:50.155 : en:
00:49:07.443 : en:
00:56:18.375 : en:
01:01:53.376 : en:
01:05:37.057 : en:
01:12:30.304 : en:
01:17:38.863 : en:
01:23:43.310 : en:
01:28:46.947 : en:
01:34:07.600 : en:
01:43:15.314 : en:
01:51:11.957 : en:

Скриншоты

[Профиль] [ЛС]
Показать сообщения:    

Текущее время: Сегодня 23:31

Часовой пояс: GMT



Вы не можете начинать темы
Вы не можете отвечать на сообщения
Вы не можете редактировать свои сообщения
Вы не можете удалять свои сообщения
Вы не можете голосовать в опросах
Вы не можете прикреплять файлы к сообщениям
Вы не можете скачивать файлы