Вуаль / The Veil (2016) BDRip-AVC от R.G.Resident | iTunes

 
Автор Сообщение

Russian Mafia ®

Пол:

Стаж: 1 год 8 месяцев

Сообщений: 4256



Награды: 10 (Подробнее)

Mega Seeder 3 (Количество: 1) Top Releaser 3 (Количество: 1) Top Releaser 4 (Количество: 1)
Торрент-статистика

Создавать темы 15-Окт-2016 16:16

[Цитировать]

Информация о фильме
Название: Вуаль
Оригинальное название: The Veil
Год выпуска: 2016
Страна: США
Жанр: ужасы, триллер, драма-Перевод: Дубляж - [iTunes]
Субтитры: русские (Forced), русские (Full), английские (Full)
Продолжительность: 01:33:30-Режиссер: Фил Джоану
В ролях: Джессика Альба (Maggie Price), Лили Рэйб (Sarah Hope), Томас Джейн (Jim Jacobs), Алекса Палладино (Karen Sweetzer), Шеннон Мари Вудворд (Jill), Рейд Скотт (Nick), Ленни Джейкобсон (Ed), Миган Уорнер (Ann), Джек Де Сена (Christian), Дэвид Салливан (Matt), Эмбер Стар Френдли (Sam), Кристофер Суини (Blonde Man)-Описание:
Спустя двадцать пять лет после того, как члены религиозного культа совершили массовое самоубийство, единственный выживший из них возвращается на место трагедии, прихватив с собой группу кинодокументалистов.-Рейтинг:

MPAA: R - Лицам до 17 лет обязательно присутствие взрослого-Качество: BDRip-AVC
Формат: MKV
Видео: AVC, 1024x426 (2.40:1), 2276 kbps, 23,976 fps, 0,218 bpp
Аудио №1: русский / AC3 / 2.0 / 48 kHz / 384 kbps /
Аудио №2: английский / AC3 / 5.1 / 48 kHz / 448 kbps /
Навигация по главам: есть-Релиз от: -

ОтчетМедиаИнфо

General
Unique ID : 183689064499508022639786059280457464034 (0x8A313A1B345BA7F6889E715DE06CF8E2)
Complete name : D:downloadThe.Veil.2016.BDRip-AVC by schultz R.G.Resident.mkv
Format : Matroska
Format version : Version 4 / Version 2
File size : 2.03 GiB
Duration : 1 h 33 min
Overall bit rate : 3 107 kb/s
Encoded date : UTC 2016-10-15 13:49:48
Writing application : mkvmerge v8.9.0 ('Father Daughter') 64bit
Writing library : libebml v1.3.3 + libmatroska v1.4.4
Video
ID : 1
Format : AVC
Format/Info : Advanced Video Codec
Format profile : High@L4.1
Format settings, CABAC : Yes
Format settings, ReFrames : 12 frames
Codec ID : V_MPEG4/ISO/AVC
Duration : 1 h 33 min
Bit rate : 2 276 kb/s
Width : 1 024 pixels
Height : 426 pixels
Display aspect ratio : 2.40:1
Frame rate mode : Constant
Frame rate : 23.976 (23976/1000) FPS
Color space : YUV
Chroma subsampling : 4:2:0
Bit depth : 8 bits
Scan type : Progressive
Bits/(Pixel*Frame) : 0.218
Stream size : 1.48 GiB (73%)
Writing library : x264 core 146 r2538 121396c
Encoding settings : cabac=1 / ref=12 / deblock=1:-3:-3 / analyse=0x3:0x113 / me=umh / subme=11 / psy=1 / psy_rd=1.00:0.00 / mixed_ref=1 / me_range=48 / chroma_me=1 / trellis=2 / 8x8dct=1 / cqm=0 / deadzone=21,11 / fast_pskip=0 / chroma_qp_offset=-2 / threads=12 / lookahead_threads=3 / sliced_threads=0 / nr=0 / decimate=0 / interlaced=0 / bluray_compat=0 / constrained_intra=0 / bframes=11 / b_pyramid=2 / b_adapt=2 / b_bias=0 / direct=3 / weightb=1 / open_gop=0 / weightp=2 / keyint=240 / keyint_min=23 / scenecut=40 / intra_refresh=0 / rc_lookahead=40 / rc=2pass / mbtree=1 / bitrate=2276 / ratetol=1.0 / qcomp=0.60 / qpmin=0 / qpmax=69 / qpstep=4 / cplxblur=20.0 / qblur=0.5 / vbv_maxrate=50000 / vbv_bufsize=62500 / nal_hrd=none / filler=0 / ip_ratio=1.40 / aq=1:1.00
Language : English
Default : Yes
Forced : No
Audio #1
ID : 2
Format : AC-3
Format/Info : Audio Coding 3
Mode extension : CM (complete main)
Format settings, Endianness : Big
Codec ID : A_AC3
Duration : 1 h 33 min
Bit rate mode : Constant
Bit rate : 384 kb/s
Channel(s) : 2 channels
Channel positions : Front: L R
Sampling rate : 48.0 kHz
Frame rate : 31.250 FPS (1536 spf)
Compression mode : Lossy
Stream size : 257 MiB (12%)
Language : Russian
Default : Yes
Forced : No
Audio #2
ID : 3
Format : AC-3
Format/Info : Audio Coding 3
Mode extension : CM (complete main)
Format settings, Endianness : Big
Codec ID : A_AC3
Duration : 1 h 33 min
Bit rate mode : Constant
Bit rate : 448 kb/s
Channel(s) : 6 channels
Channel positions : Front: L C R, Side: L R, LFE
Sampling rate : 48.0 kHz
Frame rate : 31.250 FPS (1536 spf)
Compression mode : Lossy
Stream size : 300 MiB (14%)
Language : English
Default : No
Forced : No
Text #1
ID : 4
Format : UTF-8
Codec ID : S_TEXT/UTF8
Codec ID/Info : UTF-8 Plain Text
Duration : 1 h 14 min
Bit rate : 1 b/s
Count of elements : 15
Stream size : 750 Bytes (0%)
Title : Forced
Language : Russian
Default : Yes
Forced : No
Text #2
ID : 5
Format : UTF-8
Codec ID : S_TEXT/UTF8
Codec ID/Info : UTF-8 Plain Text
Duration : 1 h 28 min
Bit rate : 76 b/s
Count of elements : 1086
Stream size : 49.7 KiB (0%)
Title : Full
Language : Russian
Default : No
Forced : No
Text #3
ID : 6
Format : UTF-8
Codec ID : S_TEXT/UTF8
Codec ID/Info : UTF-8 Plain Text
Duration : 1 h 25 min
Bit rate : 44 b/s
Count of elements : 894
Stream size : 28.3 KiB (0%)
Title : Full
Language : English
Default : No
Forced : No
Menu
00:00:00.000 : en:00:00:00.000
00:06:26.886 : en:00:06:26.886
00:15:02.401 : en:00:15:02.401
00:21:43.928 : en:00:21:43.928
00:29:16.254 : en:00:29:16.254
00:35:21.077 : en:00:35:21.077
00:44:29.417 : en:00:44:29.417
00:50:43.040 : en:00:50:43.040
01:00:10.816 : en:01:00:10.816
01:06:31.779 : en:01:06:31.779
01:12:19.835 : en:01:12:19.835
01:20:54.266 : en:01:20:54.266

Скриншоты

[Профиль] [ЛС]
Показать сообщения:    

Текущее время: Сегодня 06:18

Часовой пояс: GMT



Вы не можете начинать темы
Вы не можете отвечать на сообщения
Вы не можете редактировать свои сообщения
Вы не можете удалять свои сообщения
Вы не можете голосовать в опросах
Вы не можете прикреплять файлы к сообщениям
Вы не можете скачивать файлы