Вуаль / The Veil (Фил Джоану) [2016 г., Ужасы, WEB-DL 720p] DVO (Parovoz Production) + SUB

 
Автор Сообщение

BOSS ®

Пол:

Стаж: 2 года 1 месяц

Сообщений: 3729

Откуда: ODESSA



Награды: 20 (Подробнее)

Mega Releaser 2 (Количество: 1) Top Seeder 3 (Количество: 1) За внесенный вклад в развитие сайта (Количество: 1)
Торрент-статистика

Создавать темы 22-Янв-2016 17:33

[Цитировать]

-
Вуаль / The Veil
-- Год выпуска: 2016
Страна: США
Производство: Blumhouse Productions
Жанр: Ужасы
Продолжительность: 01:33:33
Перевод: Любительский (двухголосый, закадровый) [Parovoz Production], + Оригинал
Субтитры: Английские
Режиссер: Фил Джоану
В ролях: Джессика Альба, Томас Джейн, Лили Рэйб, Шеннон Мари Вудворд, Рейд Скотт, Алекса Палладино, Ленни Джейкобсон, Айви Джордж, Джек Де Сена, Sandra Rosko
Описание: Спустя тридцать лет после того, как члены религиозного культа совершили массовое самоубийство, единственный выживший из них возвращается на место трагедии, прихватив с собой группу кинодокументалистов.-[kp]http://www.kinopoisk.ru/film/837502[/kp] [imdb]http://www.imdb.com/title/tt3533916[/imdb]-Качество: WEB-DL 720p
Формат: MKV
Видео кодек: H 264
Аудио кодек: AC3
Видео: 1280x532 (2.40:1), 23.976 fps, MPEG4 AVC, 3970 kbps avg, 0.243 bit/pixel
Аудио #1: 48 kHz, AC3 Dolby Digital, 2/0 (L,R) ch, ~192.00 kbps (русский)
Аудио #2: 48 kHz, AC3 Dolby Digital, 3/2 (L,C,R,l,r) + LFE ch, ~384.00 kbps (английский)
Формат субтитров: UTF-8

MediaInfo:

Format : Matroska
Format version : Version 2
File size : 3.03 GiB
Duration : 1h 33mn
Overall bit rate : 4 639 Kbps
Encoded date : UTC 2016-01-22 09:55:54
Writing application : mkvmerge v7.8.0 ('River Man') 32bit built on Apr 3 2015 12:11:22
Writing library : libebml v1.3.1 + libmatroska v1.4.2
Video
ID : 1
Format : AVC
Format/Info : Advanced Video Codec
Format profile : Main@L3.1
Format settings, CABAC : No
Format settings, ReFrames : 2 frames
Codec ID : V_MPEG4/ISO/AVC
Duration : 1h 33mn
Bit rate : 3 970 Kbps
Width : 1 280 pixels
Height : 532 pixels
Display aspect ratio : 2.40:1
Frame rate mode : Constant
Frame rate : 23.976 fps
Color space : YUV
Chroma subsampling : 4:2:0
Bit depth : 8 bits
Scan type : Progressive
Bits/(Pixel*Frame) : 0.243
Stream size : 2.59 GiB (86%)
Language : English
Default : Yes
Forced : No
Color range : Limited
Color primaries : BT.709
Transfer characteristics : BT.709
Matrix coefficients : BT.709
Audio #1
ID : 2
Format : AC-3
Format/Info : Audio Coding 3
Mode extension : CM (complete main)
Format settings, Endianness : Big
Codec ID : A_AC3
Duration : 1h 33mn
Bit rate mode : Constant
Bit rate : 192 Kbps
Channel(s) : 2 channels
Channel positions : Front: L R
Sampling rate : 48.0 KHz
Bit depth : 16 bits
Compression mode : Lossy
Stream size : 128 MiB (4%)
Language : Russian
Default : Yes
Forced : No
Audio #2
ID : 3
Format : AC-3
Format/Info : Audio Coding 3
Mode extension : CM (complete main)
Format settings, Endianness : Big
Codec ID : A_AC3
Duration : 1h 33mn
Bit rate mode : Constant
Bit rate : 384 Kbps
Channel(s) : 6 channels
Channel positions : Front: L C R, Side: L R, LFE
Sampling rate : 48.0 KHz
Bit depth : 16 bits
Compression mode : Lossy
Stream size : 257 MiB (8%)
Language : English
Default : No
Forced : No
Text
ID : 4
Format : UTF-8
Codec ID : S_TEXT/UTF8
Codec ID/Info : UTF-8 Plain Text
Language : English
Default : No
Forced : No
Menu
00:00:00.000 : en:1
00:04:44.000 : en:2
00:09:45.000 : en:3
00:12:37.000 : en:4
00:17:35.000 : en:5
00:19:23.000 : en:6
00:23:14.000 : en:7
00:29:04.000 : en:8
00:33:46.000 : en:9
00:39:37.000 : en:10
00:44:32.000 : en:11
00:50:45.000 : en:12
00:55:35.000 : en:13
01:00:13.000 : en:14
01:03:32.000 : en:15
01:08:32.000 : en:16
01:12:22.000 : en:17
01:19:16.000 : en:18
01:24:57.000 : en:19
01:27:36.000 : en:20

Скриншоты:

[Профиль] [ЛС]
Показать сообщения:    

Текущее время: Сегодня 20:58

Часовой пояс: GMT



Вы не можете начинать темы
Вы не можете отвечать на сообщения
Вы не можете редактировать свои сообщения
Вы не можете удалять свои сообщения
Вы не можете голосовать в опросах
Вы не можете прикреплять файлы к сообщениям
Вы не можете скачивать файлы