Второй шанс / Danny Collins (Дэн Фогельман / Dan Fogelman) [2015, США, драма, WEB-DLRip] Dub (iTunes)

 
Автор Сообщение

TorrentFilm ®

Пол:

Стаж: 2 года

Сообщений: 7741



Награды: Нет

Торрент-статистика

Создавать темы 14-Май-2015 00:04

[Цитировать]

Второй шанс / Danny Collins
Страна: США
Жанр: драма
Год выпуска: 2015
Продолжительность: 01:46:27
Перевод: Профессиональный (полное дублирование) [iTunes]
Оригинальная аудиодорожка: нет
Cубтитры: нет
Режиссер: Дэн Фогельман / Dan Fogelman
В ролях:Аль Пачино, Аннетт Бенинг, Дженнифер Гарнер, Бобби Каннавале, Кристофер Пламмер, Мелисса Бенойст, Ник Офферман, Джош Пек, Арти Манн, Катарина Час
Описание: Когда-то песни Дэнни Коллинза обожал весь мир. Однако уже много лет он ничего не пишет, почивая на лаврах былой славы. Но однажды музыканта находит адресованное ему много лет назад письмо от …Джона Леннона. И это переворачивает всю его жизнь.

Качество: WEB-DLRip
Контейнер: AVI
Видео: 688x288 (2.39:1), 24 fps, XviD build 73 ~841 kbps avg, 0.18 bit/pixel
Аудио: 48 kHz, MPEG Layer 3, 2 ch, ~128.00 kbps avg

MI

Общее
Полное имя : C:\Users\Вячеслав\Downloads\Второй_шанс_WEB-DLRip_Некул.avi
Формат : AVI
Формат/Информация : Audio Video Interleave
Размер файла : 749 Мбайт
Продолжительность : 1 ч. 46 м.
Общий поток : 983 Кбит/сек
Дата записи : -1
Программа кодирования : XviD4PSP 7.0 / 55.48.100
Примечание : MATROSKA,WEBM > AVI / H264 > XVID CBR 843kbps HQ / AC3 > MP3 CBR 128kbps HQ
Видео
Идентификатор : 0
Формат : MPEG-4 Visual
Профиль формата : Advanced Simple@L5
Параметр BVOP формата : 1
Параметр QPel формата : Нет
Параметр GMC формата : Без точки перехода
Параметр матрицы формата : Default (H.263)
Идентификатор кодека : XVID
Идентификатор кодека/Подсказка : XviD
Продолжительность : 1 ч. 46 м.
Битрейт : 842 Кбит/сек
Ширина : 688 пикселей
Высота : 288 пикселей
Соотношение сторон : 2,40:1
Частота кадров : 24,000 кадра/сек
Цветовое пространство : YUV
Субдискретизация насыщенности : 4:2:0
Битовая глубина : 8 бит
Тип развёртки : Прогрессивная
Метод сжатия : С потерями
Бит/(Пиксели*Кадры) : 0.177
Размер потока : 641 Мбайт (86%)
Библиотека кодирования : XviD 73
Аудио
Идентификатор : 1
Формат : MPEG Audio
Версия формата : Version 1
Профиль формата : Layer 3
Режим : Joint stereo
Расширение режима : MS Stereo
Идентификатор кодека : 55
Идентификатор кодека/Подсказка : MP3
Продолжительность : 1 ч. 46 м.
Вид битрейта : Постоянный
Битрейт : 128 Кбит/сек
Каналы : 2 канала
Частота : 48,0 КГц
Метод сжатия : С потерями
Размер потока : 97,5 Мбайт (13%)
Выравнивание : Соединение по промежуткам
Продолжительность промежутка : 24 мс. (0,58 видеокадр)
Время предзагрузки промежутка : 24 мс.
Библиотека кодирования : LAME3.99.5

Скриншоты

[Профиль] [ЛС]
Кто просматривает тему:

Форум Тема Автор Размер
Документальные HD 3D шпионы во Второй мировой войне / 3D Spies of WWII. Destroying Hitler\'s Top Secret Rockets (Тим Данн / Tim Dunn) [2011, Документальный, война, история, HDTVRip 720p] TorrentFilm 1.25 GB
National Geographic NG: Великие рейды Второй мировой войны / WWII's Greatest Raids (2014) HDTVRip (6 серий из 6) sergej644 3.7 GB
Viasat History Viasat History: Загадочные авиакатастрофы Второй Мировой войны / WW II: Air Crash Detectives [серии 1-6 из 6] (Джеймс Фловер) [2014 г., Документальный, авиация, исторический, исследование, SATRip] skorpionN 3.69 GB
XXXI Летние Олимпийские игры. Рио-де-Жанейро 2016 (Бразилия) XXXI Летние Олимпийские Игры. Рио-де-Жанейро (Бразилия). Легкая атлетика. Второй день. Вечер [13.08] (2016) HDTV 1080i BOSS 17.01 GB
XXXI Летние Олимпийские игры. Рио-де-Жанейро 2016 (Бразилия) XXXI Летние Олимпийские Игры. Рио-де-Жанейро (Бразилия). Легкая атлетика. Второй день. Утро [13.08] (2016) HDTV 1080i BOSS 16.86 GB
Фантастика и фэнтези Аркадий и Борис Стругацкие - Хищные вещи века. Второе нашествие марсиан [Владимир Левашев, 2013] Garik014 229 MB
Фантастика, фэнтези Артем Каменистый - Самый странный нуб, книга третья: Боги Второго Мира (2016) FB2 достали все 1 MB
Фильмы 2015 года Атака титанов. Фильм второй: Конец света / Shingeki no kyojin endo obu za wârudo (2015) HDRip от MegaPeer | iTunes достали все 742 MB
Показать сообщения:    

Текущее время: Сегодня 09:03

Часовой пояс: GMT



Вы не можете начинать темы
Вы не можете отвечать на сообщения
Вы не можете редактировать свои сообщения
Вы не можете удалять свои сообщения
Вы не можете голосовать в опросах
Вы не можете прикреплять файлы к сообщениям
Вы не можете скачивать файлы