Второй шанс / Gridiron Gang (Фил Джоану / Phil Joanou) [2006, США, Драма, криминал, спорт, BDRip] DVO

 
Автор Сообщение

TorrentFilm ®

Пол:

Стаж: 2 года

Сообщений: 7741



Награды: Нет

Торрент-статистика

Создавать темы 25-Май-2015 00:04

[Цитировать]

Второй шанс / Gridiron Gang
«Их считали людьми второго сорта. Им же был просто нужен второй шанс»
- Год выпуска: 2006
Выпущено: США / Columbia Pictures Industries Inc.
Жанр: драма, криминал, спорт
Продолжительность: 02:05:17
Перевод: Профессиональный (двухголосый закадровый) BD CEE
Cубтитры: нет-Режиссер:
Фил Джоану / Phil Joanou-В ролях:
Дуэйн Джонсон (Sean Porter), Иксзибит (Malcolm Moore), Л. Скотт Колдуэлл (Bobbi Porter), Леон Риппи (Paul Higa), Кевин Данн (Ted Dexter), Джейд Йоркер (Willie Weathers), Дэвид В. Томас (Kelvin Owens), Сету Таасе (Junior Palaita), Мо (Leon Hayes), Джеймс Эрл (Donald Madlock)-Описание:
Кажется, что те, кто уже серьезно оступился однажды и отбывает срок в исправительном учреждении, обречены, но может ли жизнь предоставить еще один шанс?! Особенно если есть человек, способный помочь. Помогут ли футбол и командный дух его воспитанникам вновь обрести чувство собственного достоинства и встать на путь исправления?!-Релиз групп | | IMDB | КиноПоиск | Сэмпл |-Качество: BDRip [Blu-ray Disc]
Формат: AVI
Видео: 720x304 (2.37:1), 23.976 fps, XviD build 73 ~1275 kbps avg, 0.24 bit/pixel
Аудио: 48 kHz, AC3 Dolby Digital, 3/2 (L,C,R,l,r) + LFE ch, ~384.00 kbps avg
-

Скриншоты

MediaInfo

General
Complete name                            : D:\Vtoroi_shans_2006_BDRip_by_Dalemake.avi
Format                                   : AVI
Format/Info                              : Audio Video Interleave
File size                                : 1.46 GiB
Duration                                 : 2h 5mn
Overall bit rate                         : 1 669 Kbps
Writing application                      : VirtualDubMod 1.5.10.3 | www.virtualdub-fr.org || (build 2550/release)
Writing library                          : VirtualDubMod build 2550/release
Video
ID                                       : 0
Format                                   : MPEG-4 Visual
Format profile                           : Advanced Simple@L5
Format settings, BVOP                    : 1
Format settings, QPel                    : No
Format settings, GMC                     : No warppoints
Format settings, Matrix                  : Custom
Codec ID                                 : XVID
Codec ID/Hint                            : XviD
Duration                                 : 2h 5mn
Bit rate                                 : 1 276 Kbps
Width                                    : 720 pixels
Height                                   : 304 pixels
Display aspect ratio                     : 2.35:1
Frame rate                               : 23.976 fps
Color space                              : YUV
Chroma subsampling                       : 4:2:0
Bit depth                                : 8 bits
Scan type                                : Progressive
Compression mode                         : Lossy
Bits/(Pixel*Frame)                       : 0.243
Stream size                              : 1.12 GiB (76%)
Writing library                          : XviD 73
Audio
ID                                       : 1
Format                                   : AC-3
Format/Info                              : Audio Coding 3
Mode extension                           : CM (complete main)
Format settings, Endianness              : Big
Codec ID                                 : 2000
Duration                                 : 2h 5mn
Bit rate mode                            : Constant
Bit rate                                 : 384 Kbps
Channel(s)                               : 6 channels
Channel positions                        : Front: L C R, Side: L R, LFE
Sampling rate                            : 48.0 KHz
Bit depth                                : 16 bits
Compression mode                         : Lossy
Stream size                              : 344 MiB (23%)
Alignment                                : Split accross interleaves
Interleave, duration                     : 42 ms (1.00 video frame)
Interleave, preload duration             : 500 ms
-
[Профиль] [ЛС]

Создавать темы 06-Авг-2015 22:31 (спустя 2 месяца 12 дней)

Топик был перенесен из форума Фильмы до 2014 года в форум Фильмы до 2012 года
sergej644
 
Кто просматривает тему:

Форум Тема Автор Размер
Документальные HD 3D шпионы во Второй мировой войне / 3D Spies of WWII. Destroying Hitler\'s Top Secret Rockets (Тим Данн / Tim Dunn) [2011, Документальный, война, история, HDTVRip 720p] TorrentFilm 1.25 GB
National Geographic NG: Великие рейды Второй мировой войны / WWII's Greatest Raids (2014) HDTVRip (6 серий из 6) sergej644 3.7 GB
Viasat History Viasat History: Загадочные авиакатастрофы Второй Мировой войны / WW II: Air Crash Detectives [серии 1-6 из 6] (Джеймс Фловер) [2014 г., Документальный, авиация, исторический, исследование, SATRip] skorpionN 3.69 GB
XXXI Летние Олимпийские игры. Рио-де-Жанейро 2016 (Бразилия) XXXI Летние Олимпийские Игры. Рио-де-Жанейро (Бразилия). Легкая атлетика. Второй день. Вечер [13.08] (2016) HDTV 1080i BOSS 17.01 GB
XXXI Летние Олимпийские игры. Рио-де-Жанейро 2016 (Бразилия) XXXI Летние Олимпийские Игры. Рио-де-Жанейро (Бразилия). Легкая атлетика. Второй день. Утро [13.08] (2016) HDTV 1080i BOSS 16.86 GB
Фантастика и фэнтези Аркадий и Борис Стругацкие - Хищные вещи века. Второе нашествие марсиан [Владимир Левашев, 2013] Garik014 229 MB
Фантастика, фэнтези Артем Каменистый - Самый странный нуб, книга третья: Боги Второго Мира (2016) FB2 достали все 1 MB
Фильмы 2015 года Атака титанов. Фильм второй: Конец света / Shingeki no kyojin endo obu za wârudo (2015) HDRip от MegaPeer | iTunes достали все 742 MB
Показать сообщения:    

Текущее время: Сегодня 13:00

Часовой пояс: GMT



Вы не можете начинать темы
Вы не можете отвечать на сообщения
Вы не можете редактировать свои сообщения
Вы не можете удалять свои сообщения
Вы не можете голосовать в опросах
Вы не можете прикреплять файлы к сообщениям
Вы не можете скачивать файлы