Вторжение / Breaking and Entering (Энтони Мингелла / Anthony Minghella) [2006, США, Великобритания, драма, HDRip] MVO (Первый канал) + Original Eng

 
Автор Сообщение

TorrentFilm ®

Пол:

Стаж: 2 года

Сообщений: 7741



Награды: Нет

Торрент-статистика

Создавать темы 14-Июл-2015 00:10

[Цитировать]

Вторжение
Breaking and Entering

Страна: Великобритания, США
Жанр: драма
Год выпуска: 2006
Продолжительность: 01:58:48-Перевод: Профессиональный (многоголосый закадровый)
Первый канал

Cубтитры: нет
Оригинальная аудиодорожка: английский-Режиссер: Энтони Мингелла / Anthony Minghella
В ролях: Джуд Лоу, Жюльет Бинош, Робин Райт, Вера Фармига,
Мартин Фриман, Рэй Уинстон, Рафи Гэврон, Поппи Роджерс
-Описание: У молодого ландшафтного архитектора Уилла сложный период. Он переживает кризис как в профессиональной, так и в личной жизни. А тут еще кто-то дважды взламывает его офис в центре Лондона и крадет дорогое оборудование. Не надеясь на полицию, Уилл решает лично выследить вора. Грабителем оказывается 15-летний паренек, сын Амиры, боснийской беженки. Знакомство с Амирой меняет жизнь Уилла...-Доп. информация: Видео скачано с рутора, спасибо andresweet
О переводе: Перевод на трекере появляется впервые
Качество: цифровой эфир (Первый канал)
Синхронизация: mister55555
За недостающие 30 минут перевода большое спасибо Glowamy-Сэмпл: минута52сек-Качество видео: HDRip
Формат видео: AVI
Видео: XviD, 720x304, 2,35:1, 23,976 кадра/сек, 1301 Кбит/сек
Аудио 1: AC-3, 48,0 КГц, 192 Кбит/сек, 2 канала (многоголосый Первый канал)
Аудио 2: AC-3, 48,0 КГц, 192 Кбит/сек, 2 канала (английская оригинальная дорожка)

MediaInfo

Общее
Полное имя : D:\с диска Е\инет\Раздачи\Вторжение.2006.HDRip.1канал\Вторжение.2006.HDRip.1канал.avi
Формат : AVI
Формат/Информация : Audio Video Interleave
Размер файла : 1,41 Гбайт
Продолжительность : 1 ч. 58 м.
Общий поток : 1699 Кбит/сек
Программа кодирования : VirtualDubModRus 1.5.10.2 (build 2542/release)
Библиотека кодирования : VirtualDubMod build 2542/release
Видео
Идентификатор : 0
Формат : MPEG-4 Visual
Профиль формата : Advanced Simple@L5
Параметр BVOP формата : 1
Параметр QPel формата : Нет
Параметр GMC формата : Без точки перехода
Параметр матрицы формата : Default (MPEG)
Идентификатор кодека : XVID
Идентификатор кодека/Подсказка : XviD
Продолжительность : 1 ч. 58 м.
Битрейт : 1301 Кбит/сек
Ширина : 720 пикселей
Высота : 304 пикселя
Соотношение сторон : 2,35:1
Частота кадров : 23,976 кадра/сек
Цветовое пространство : YUV
Субдискретизация насыщенности : 4:2:0
Битовая глубина : 8 бит
Тип развёртки : Прогрессивная
Метод сжатия : С потерями
Бит/(Пиксели*Кадры) : 0.248
Размер потока : 1,08 Гбайт (77%)
Библиотека кодирования : XviD 1.2.0.dev47 (UTC 2006-11-01)
Аудио #1
Идентификатор : 1
Формат : AC-3
Формат/Информация : Audio Coding 3
Расширение режима : CM (complete main)
Параметр Endianness формата : Big
Идентификатор кодека : 2000
Продолжительность : 1 ч. 58 м.
Вид битрейта : Постоянный
Битрейт : 192 Кбит/сек
Каналы : 2 канала
Расположение каналов : Front: L R
Частота : 48,0 КГц
Метод сжатия : С потерями
Размер потока : 163 Мбайт (11%)
Выравнивание : Разделение по промежуткам
Продолжительность промежутка : 42 мс. (1,00 видеокадр)
Время предзагрузки промежутка : 500 мс.
Заголовок : многоголосый Первый канал
Аудио #2
Идентификатор : 2
Формат : AC-3
Формат/Информация : Audio Coding 3
Расширение режима : CM (complete main)
Параметр Endianness формата : Big
Идентификатор кодека : 2000
Продолжительность : 1 ч. 58 м.
Вид битрейта : Постоянный
Битрейт : 192 Кбит/сек
Каналы : 2 канала
Расположение каналов : Front: L R
Частота : 48,0 КГц
Метод сжатия : С потерями
Размер потока : 163 Мбайт (11%)
Выравнивание : Разделение по промежуткам
Продолжительность промежутка : 42 мс. (1,00 видеокадр)
Время предзагрузки промежутка : 500 мс.
Заголовок : оригинал

Скриншот c названием фильма

[Профиль] [ЛС]

Создавать темы 06-Авг-2015 22:25 (спустя 23 дня)

Топик был перенесен из форума Фильмы до 2014 года в форум Фильмы до 2012 года
sergej644
 
Показать сообщения:    

Текущее время: Сегодня 08:01

Часовой пояс: GMT



Вы не можете начинать темы
Вы не можете отвечать на сообщения
Вы не можете редактировать свои сообщения
Вы не можете удалять свои сообщения
Вы не можете голосовать в опросах
Вы не можете прикреплять файлы к сообщениям
Вы не можете скачивать файлы